<?xml version="1.0" standalone="no"?>
<!DOCTYPE svg PUBLIC "-//W3C//DTD SVG 1.1//EN" "http://www.w3.org/Graphics/SVG/1.1/DTD/svg11.dtd" >
<svg xmlns="http://www.w3.org/2000/svg">
<metadata>
This is a custom SVG webfont generated by Font Squirrel.
Copyright   : Copyright c 2011 Pablo Impallari wwwimpallaricomimpallarigmailcomCopyright c 2011 Igino Marini wwwikerncommailiginomarinicomwith Reserved Font Name Kaushan Script
Designer    : Pablo Impallari
Foundry     : Pablo Impallari
Foundry URL : wwwimpallaricom
</metadata>
<defs>
<font id="KaushanScriptRegular" horiz-adv-x="1247" >
<font-face units-per-em="2048" ascent="1638" descent="-410" />
<missing-glyph horiz-adv-x="487" />
<glyph unicode=" "  horiz-adv-x="487" />
<glyph unicode="&#x09;" horiz-adv-x="487" />
<glyph unicode="&#xa0;" horiz-adv-x="487" />
<glyph unicode="!" horiz-adv-x="614" d="M123 -59q0 66 27.5 145.5t68.5 79.5q55 0 114.5 -39t88.5 -90q-23 -25 -52.5 -78t-57 -85t-64.5 -32q-43 0 -84 37t-41 62zM293 385q0 109 102.5 386.5t234.5 535.5t208 313q63 -14 140 -83t87 -120q-219 -180 -401.5 -506.5t-245.5 -685.5q-63 16 -94 47t-31 113z" />
<glyph unicode="&#x22;" horiz-adv-x="751" d="M469 1116q68 195 68 373q0 113 -25 217q98 -6 179 -42t108 -87q-72 -394 -297 -539q-33 29 -33 78zM838 1116q68 195 67 373q0 113 -24 217q98 -6 179 -42t107 -87q-72 -394 -297 -539q-33 29 -32 78z" />
<glyph unicode="#" horiz-adv-x="1384" d="M231 457q0 23 15 69q90 -12 145 -12q150 0 238 4q12 35 34.5 101.5t30.5 93.5q-100 -8 -182 -8q-121 0 -121 96q0 33 15 69q86 -12 143 -12q123 0 194 4q139 434 226 778q129 0 184 -118q-129 -367 -240 -654l185 11q125 393 219 761q129 0 184 -118q-119 -334 -231 -633 q168 10 200 10q88 0 97 -145q-84 10 -142 10q-102 0 -206 -8q-76 -193 -84 -209q35 2 78.5 4t66.5 3t33 1q86 0 94 -145q-82 10 -139 10q-94 0 -187 -8q-215 -518 -360 -729q-45 25 -53 88q106 197 266 630q-78 -4 -213 -16q-205 -494 -348 -702q-45 25 -54 88 q102 186 256 602q-141 -12 -221 -13q-123 0 -123 97zM778 526q78 2 205 11q6 16 31.5 90.5t38.5 115.5q-132 -12 -195 -16q-45 -117 -80 -201z" />
<glyph unicode="$" horiz-adv-x="1368" d="M215 330q0 121 115 243q0 -68 51 -155.5t147 -159.5q72 -55 150 -90q90 264 149 481q-174 98 -252.5 193.5t-78.5 214.5q0 180 133 302t350 122q18 0 59 -4q35 168 45 229q146 -41 189 -96l-53 -170q129 -43 268 -125q6 -57 6 -70q0 -72 -33 -134t-82 -83 q-68 121 -229 191q-49 -154 -145 -449l24 -12q178 -96 262 -200.5t84 -252.5q0 -203 -130 -324.5t-339 -121.5q-104 0 -223 41q-70 -154 -129 -256q-51 10 -66 73q41 59 105 217q-160 72 -268.5 178.5t-108.5 217.5zM598 1139q0 -115 283 -295q66 242 108 420 q-68 10 -119 10q-113 0 -192.5 -38t-79.5 -97zM778 133q98 -31 203 -31q152 0 218.5 60t66.5 121q0 137 -322 307q-92 -268 -166 -457z" />
<glyph unicode="%" horiz-adv-x="1267" d="M178 14q236 213 591 697.5t548 847.5q49 0 115.5 -33t80.5 -66q-291 -432 -654 -875.5t-595 -664.5q-25 4 -51.5 33t-34.5 61zM465 1157q0 55 50.5 113.5t109.5 58.5q74 0 113.5 -59.5t39.5 -134.5q0 -57 -50 -100.5t-101 -43.5q-59 0 -110.5 50.5t-51.5 115.5zM993 371 q0 53 50.5 112.5t109.5 59.5q74 0 114 -58.5t40 -134.5q0 -57 -50.5 -101t-101.5 -44q-57 0 -109.5 51t-52.5 115z" />
<glyph unicode="&#x26;" horiz-adv-x="1366" d="M197 215q4 184 132 361.5t289 259.5q-139 59 -139 176q0 141 177.5 299.5t334.5 187.5q45 -6 135.5 -78.5t98.5 -115.5q-8 -49 -51.5 -116t-88.5 -99q-20 6 -24 20q27 27 48 73t21 85q0 37 -43 37q-115 0 -257 -159t-142 -284q47 -4 118 -41t83 -67q-188 -45 -324.5 -251 t-136.5 -382q0 -164 127 -164q240 0 745 731q-49 -8 -90 -8q-139 0 -139 98q0 33 12 76q63 -10 162 -10q106 0 185 4l77 4q47 0 71 -35t44 -123q-100 10 -164 11q-14 0 -36.5 -1.5t-30.5 -1.5q-109 -176 -229 -334.5t-285.5 -308t-309.5 -196.5q-158 18 -260 115.5 t-110 236.5z" />
<glyph unicode="'" horiz-adv-x="382" d="M469 1116q68 195 68 373q0 113 -25 217q98 -6 179 -42t108 -87q-72 -394 -297 -539q-33 29 -33 78z" />
<glyph unicode="(" horiz-adv-x="653" d="M285 362q0 319 106.5 611.5t265 485t338.5 286.5q51 -20 116 -102t71 -115q-156 -27 -297.5 -147.5t-237.5 -288.5t-153.5 -368t-57.5 -388q0 -172 21.5 -344t58.5 -260l-24 -27q-207 244 -207 657z" />
<glyph unicode=")" horiz-adv-x="659" d="M-86 -180q156 27 297 147.5t237.5 288.5t153.5 367.5t57 388.5q0 172 -21 344t-58 260l24 26q207 -244 207 -657q0 -319 -106.5 -611t-265 -484.5t-339.5 -286.5q-51 20 -115.5 102t-70.5 115z" />
<glyph unicode="*" horiz-adv-x="931" d="M545 1468q41 139 129 140q55 0 111.5 -50.5t91.5 -117.5q25 63 24 145q0 17 -10 119q178 -2 178 -121q0 -100 -100 -205q102 2 252 68q6 -31 6 -82q0 -41 -3 -62.5t-24.5 -44t-64.5 -22.5q-113 0 -199 37q33 -90 141 -219q-78 -47 -153 -47q-102 0 -103 227q0 25 2 39 q-86 -70 -161 -205q-98 82 -99 170q0 41 85 85t140 56q-86 55 -243 90z" />
<glyph unicode="+" horiz-adv-x="1140" d="M252 537q0 12 14 63q63 -10 168 -10q125 0 182 4q104 279 191 391q49 -10 140 -56t108 -73q-86 -94 -170 -244q37 4 86 8.5t78.5 7.5t46.5 3q45 0 79.5 -48t51.5 -134q-100 10 -164 10q-123 0 -266 -19q-77 -165 -140 -360q-74 12 -170 96q25 94 66 234q-63 -8 -139 -9 q-74 0 -118 36t-44 100z" />
<glyph unicode="," horiz-adv-x="491" d="M2 -268q190 164 191 342q0 106 -25 207q104 -6 192.5 -50.5t98.5 -95.5q-96 -340 -424 -481q-33 29 -33 78z" />
<glyph unicode="-" horiz-adv-x="1077" d="M279 516q0 18 12 62q45 -8 145 -9q164 0 360.5 20.5t209.5 20.5q39 0 68.5 -48t43.5 -134q-84 10 -141 10q-127 0 -306 -28.5t-253 -28.5q-63 0 -101 36t-38 99z" />
<glyph unicode="." horiz-adv-x="493" d="M141 2q0 23 8.5 66t16.5 76.5t20.5 77.5t14.5 52q51 0 142 -48t128 -103q-33 -78 -104.5 -139.5t-110.5 -61.5q-33 4 -69.5 28.5t-45.5 51.5z" />
<glyph unicode="/" horiz-adv-x="1116" d="M-23 -262q186 111 476 495.5t521.5 787t303.5 619.5q49 0 136.5 -42.5t101.5 -75.5q-344 -604 -741.5 -1119.5t-711.5 -758.5q-25 4 -51 32.5t-35 61.5z" />
<glyph unicode="0" horiz-adv-x="1323" d="M272 369q0 184 78 388t201 369.5t291 274t333.5 108.5t250.5 -116.5t85 -309.5q0 -147 -40.5 -306t-121.5 -308.5t-187.5 -270t-251 -194.5t-300.5 -78q-160 31 -249 133.5t-89 309.5zM528 285q0 -133 47.5 -193.5t145.5 -77.5q106 6 207.5 97.5t175.5 225.5t131 287.5 t86 289t29 223.5q0 242 -111 268q-133 -16 -268 -143t-229.5 -300.5t-154 -357.5t-59.5 -319z" />
<glyph unicode="1" horiz-adv-x="897" d="M70 31q33 31 342 80q111 467 299 1015q-125 -57 -273 -188q-23 12 -22 55q109 145 325 353q63 59 109 145q10 -2 54 -12.5t70.5 -18.5t62.5 -20.5t58.5 -28.5t32.5 -35q-59 -49 -86 -100q-160 -289 -419 -1137q75 8 143 8t105.5 -33.5t37.5 -93.5q0 -37 -10 -63 q-57 10 -137 10q-88 0 -253 -25.5t-224 -25.5q-80 0 -137.5 30.5t-77.5 84.5z" />
<glyph unicode="2" horiz-adv-x="1155" d="M178 41q25 109 111 199t329 290q272 223 394.5 368.5t122.5 293.5q0 98 -51.5 156.5t-135.5 58.5q-119 0 -214 -104.5t-95 -241.5q0 -94 63 -172q-27 -6 -53 -6q-96 0 -159.5 61.5t-63.5 153.5q0 154 162 271.5t358 117.5q168 0 271.5 -95t103.5 -249q0 -78 -32 -157 t-72.5 -141.5t-132 -154.5t-154 -148.5t-193.5 -168.5q-111 -94 -163 -158.5t-93 -146.5q164 10 328 74.5t278 164.5q20 -23 43 -85t23 -118q0 -51 -23 -88q-25 -29 -91 -43t-122.5 -16t-166.5 -4q-332 -4 -426 -74q-49 23 -90 67t-56 95z" />
<glyph unicode="3" horiz-adv-x="1136" d="M184 162q0 4 1 12t1 14q63 -20 164 -20q150 0 302.5 41t268 130t115.5 204q0 143 -182 168q-113 -68 -203 -68q-49 0 -80.5 43t-31.5 123q100 0 196 21.5t187.5 68.5t147.5 136t60 208q-20 78 -139 78q-100 0 -225 -55.5t-205 -137.5q-88 51 -88 191q0 25 2 37 q59 41 195.5 72.5t238.5 31.5q156 0 233 -78.5t77 -187.5q0 -104 -77 -225t-204 -207q258 -29 258 -258q0 -150 -83 -265.5t-215 -181t-275.5 -98.5t-284.5 -33q-74 14 -114 78t-40 158z" />
<glyph unicode="4" horiz-adv-x="1167" d="M213 614q317 358 541 840q170 -51 272 -137q-385 -440 -559 -682q92 -41 223 -41q72 0 174 8q209 434 406 807q164 -37 225 -131q-197 -270 -383 -639l100 20q18 -20 21 -45l-162 -59q-152 -309 -219 -618q-154 4 -219 75q72 238 180 477q-119 -14 -180 -14 q-305 0 -420 139z" />
<glyph unicode="5" horiz-adv-x="1101" d="M152 113q158 2 340 67.5t319 185t137 252.5q0 125 -141 125q-139 0 -266 -81q-136 50 -183 118q55 145 168 360.5t185 311.5q109 -41 180 -111q55 4 186 31t183 43q63 -31 103 -92t77 -166q-268 70 -539 70q-129 -113 -266 -381q72 29 147 28q137 0 224.5 -99t87.5 -247 q0 -145 -117 -285.5t-296 -227.5t-355 -89q-53 12 -103.5 61.5t-70.5 125.5z" />
<glyph unicode="6" horiz-adv-x="1157" d="M221 254q0 227 144.5 497.5t355 476t405.5 271.5q47 0 138.5 -54t132.5 -112q-100 -14 -252 -104t-312.5 -248t-252.5 -328q104 109 222 183.5t214 78.5q94 -51 169 -141t75 -178q0 -119 -120 -285t-282 -285.5t-274 -119.5q-168 33 -265.5 122t-97.5 226zM442 211 q0 -61 40 -126t93 -83q168 82 338 298t170 370q1 100 -71 149q-246 -82 -408 -259t-162 -349z" />
<glyph unicode="7" horiz-adv-x="1140" d="M414 610q0 29 27.5 75t52.5 60q98 16 188 17q31 0 88 -4q160 274 360 508q-147 53 -266 53q-193 0 -243 -148q-76 14 -132.5 62.5t-74.5 116.5q74 150 272 149q184 0 508 -164q72 76 86 90q53 -23 99 -71.5t63 -102.5q-236 -125 -445 -536q205 -66 271 -187l-15 -14 q-96 53 -311 84q-184 -416 -184 -739q-94 16 -170 56t-101 85q6 236 205 618q-141 0 -276 -16q0 2 -1 3t-1 5z" />
<glyph unicode="8" horiz-adv-x="1165" d="M219 264q0 315 453 518q-176 164 -176 322q0 164 148.5 278.5t332.5 137.5q160 -51 254 -130t94 -173q0 -98 -106.5 -197.5t-262.5 -173.5q61 -59 89 -90t71 -88.5t61.5 -116.5t18.5 -127q0 -217 -168 -366.5t-369 -149.5q-199 0 -319.5 84t-120.5 272zM434 221 q0 -106 57.5 -164.5t139.5 -58.5q115 0 206 105.5t91 279.5q0 152 -160 307q-174 -100 -254 -223t-80 -246zM762 1163q0 -115 115 -239q92 59 178 160.5t86 179.5q0 63 -31 103t-80 48q-92 -16 -180 -93t-88 -159z" />
<glyph unicode="9" horiz-adv-x="1134" d="M227 39q150 18 396.5 236.5t384.5 472.5q-100 -106 -219 -186.5t-205 -84.5q-88 49 -160 149.5t-72 190.5q0 119 122 281t284 276.5t272 114.5q164 -33 258 -128t94 -235q0 -164 -143 -435t-361.5 -512t-404.5 -302q-61 16 -147 69.5t-99 92.5zM547 756q0 -111 51 -162 q131 27 266 130t222.5 237.5t87.5 244.5q0 57 -55.5 121t-121.5 82q-152 -78 -301 -290t-149 -363z" />
<glyph unicode=":" horiz-adv-x="583" d="M178 2q0 23 8.5 66t16.5 76.5t20.5 77.5t14.5 52q51 0 142 -48t128 -103q-33 -78 -104.5 -139.5t-110.5 -61.5q-33 4 -70 28.5t-45 51.5zM383 653q0 23 8 66t16.5 76.5t20.5 78t14 52.5q51 0 142.5 -48.5t128.5 -103.5q-33 -78 -104.5 -139.5t-110.5 -61.5q-33 4 -70 29 t-45 51z" />
<glyph unicode=";" horiz-adv-x="581" d="M47 -268q190 164 191 342q0 106 -25 207q104 -6 192.5 -50.5t98.5 -95.5q-96 -340 -424 -481q-33 29 -33 78zM375 653q0 23 8 66t16.5 76.5t20.5 78t14 52.5q51 0 142.5 -48.5t128.5 -103.5q-33 -78 -105 -139.5t-111 -61.5q-33 4 -69.5 29t-44.5 51z" />
<glyph unicode="&#x3c;" horiz-adv-x="1056" d="M233 492q8 27 41 63.5t64 64t88 74.5t80 68q111 98 186.5 197.5t204.5 302.5q94 0 165 -52.5t71 -111.5q0 -35 -13 -88q-12 10 -28 10q-37 0 -144.5 -93t-276.5 -262l-188 -188q61 -45 258 -45q154 0 371 39q2 -6 2 -16q1 -37 -22 -64q-289 -68 -459 -67q-309 0 -400 168 z" />
<glyph unicode="=" horiz-adv-x="1167" d="M258 315q0 43 16 78q90 -12 144 -12q164 0 362.5 18.5t208.5 18.5q80 0 111 -178q-90 8 -139 8q-127 0 -306.5 -29t-253.5 -29q-68 0 -105.5 35t-37.5 90zM389 721q0 18 12 67q90 -12 146 -12q164 0 360.5 20.5t208.5 20.5q84 0 113 -178q-84 10 -142 10 q-127 0 -306 -29.5t-253 -29.5q-63 0 -101 36t-38 95z" />
<glyph unicode="&#x3e;" horiz-adv-x="1275" d="M262 475q0 119 207 125q436 14 692 18q-8 37 -36.5 74t-114.5 123q-203 195 -428 264q6 16 28.5 30.5t40.5 16.5q164 -47 296 -135t270 -223q127 -127 126 -268q0 -29 -6 -58q-45 -27 -161 -26q-39 0 -122 3t-120 3q-139 0 -260 -22.5t-344 -86.5q-68 94 -68 162z" />
<glyph unicode="?" horiz-adv-x="983" d="M266 -39q0 55 29 130t82 75q41 0 102.5 -41t85.5 -88q-20 -23 -51 -77t-58.5 -86t-62.5 -32q-39 0 -83 32t-44 87zM401 365q0 68 38 156.5t129 194t216 181.5q158 92 240 183t82 165q0 63 -47 118.5t-103 55.5q-63 0 -140 -106.5t-77 -194.5q0 -29 6 -37q-23 -4 -47 -4 q-80 0 -153.5 29t-87.5 65q31 137 155.5 271.5t233.5 148.5q162 -12 288 -130t126 -267q0 -61 -21.5 -121.5t-45.5 -102.5t-92.5 -117t-108.5 -113t-148 -142q-92 -88 -143.5 -181t-51.5 -171q0 -10 4 -43q-70 2 -148.5 53t-103.5 109z" />
<glyph unicode="@" horiz-adv-x="1341" d="M250 365q0 133 82.5 305t234.5 297q201 164 406 163q182 0 326.5 -124.5t144.5 -268.5q0 -164 -176 -361.5t-316 -197.5q-84 0 -162.5 77t-78.5 161q0 106 77.5 204.5t217.5 139.5q76 -29 132 -94.5t60 -130.5q-39 16 -82 16q-86 0 -146.5 -64.5t-60.5 -144.5 q0 -57 58 -57q106 0 253.5 178t147.5 307q0 84 -72.5 143.5t-175.5 59.5q-213 0 -418.5 -230.5t-205.5 -472.5q0 -152 86 -257t211 -105q90 0 199.5 65.5t269.5 212.5q16 -29 16 -45q-152 -154 -278 -240.5t-259 -86.5q-195 0 -343 181t-148 370z" />
<glyph unicode="A" horiz-adv-x="1314" d="M125 -27q0 143 272 623q-139 4 -164 4q23 57 222 92q162 266 354 476t360 300q4 37 5 39q57 0 170.5 -49t121.5 -78q-156 -274 -241 -921q-25 -186 -25 -420q0 -123 4 -191q-6 -2 -24 -2q-57 0 -140.5 32t-93.5 59q-2 35 -2 106q0 264 41 528q-109 8 -436 21 q-111 -205 -166 -367q-72 -205 -84 -381q-98 29 -136 57.5t-38 71.5zM621 713q172 14 391 18q29 156 78 344q20 74 40 185q-102 -39 -241 -189.5t-268 -357.5z" />
<glyph unicode="B" horiz-adv-x="1472" d="M276 76q100 311 291 727q158 344 252 471q-248 -74 -340 -164q-37 25 -74.5 91.5t-42.5 115.5q106 76 322.5 129t409.5 53q244 0 384 -98.5t140 -272.5q0 -123 -68.5 -224t-191.5 -167q170 -117 170 -299q0 -145 -112.5 -283.5t-296 -224.5t-376.5 -86q-326 0 -467 232z M526 61q55 -32 162 -32h6q279 0 490 144t211 333q0 135 -117 194q-158 -65 -354 -65h-6q-53 0 -80 4q-39 18 -72 55q-229 -518 -240 -633zM819 817q84 18 185 19q37 0 102 -9q197 35 314.5 122t117.5 202q0 96 -79 147.5t-224 51.5q-76 0 -193 -21q8 -8 23 -37 q-74 -98 -246 -475z" />
<glyph unicode="C" horiz-adv-x="1236" d="M291 401q0 283 127 540t339 413.5t447 156.5q139 0 219 -59t80 -166q0 -80 -44 -170t-113 -147q-51 8 -92.5 48t-49.5 93q156 125 156 242q0 90 -113 90q-92 0 -197.5 -73t-189.5 -193q-285 -410 -285 -838q0 -150 46.5 -243t126.5 -109q186 43 518 352q20 -20 24 -43 q-117 -158 -249 -282t-234 -173q-252 4 -384 147.5t-132 413.5z" />
<glyph unicode="D" horiz-adv-x="1593" d="M319 1092q41 188 221.5 303.5t438.5 115.5q328 0 536.5 -182t208.5 -475q0 -262 -125.5 -495.5t-336.5 -374t-451 -140.5q-344 0 -467 262q88 201 258 653.5t215 602.5q-266 -109 -360 -434q-49 16 -87 60t-51 104zM580 41q55 -18 157 -18q217 0 406.5 130t299 347 t109.5 465q0 209 -130 326.5t-355 117.5q-102 0 -195 -29q160 -57 232 -125q-88 -123 -303 -598q-221 -492 -221 -616z" />
<glyph unicode="E" d="M221 14q86 178 256 627q-92 29 -121 102q18 18 181 58q109 289 145 463q-70 2 -112 38.5t-42 94.5q0 37 17 78q66 -10 178 -11q203 0 445.5 22.5t256.5 22.5q47 0 84 -49t56 -139q-104 10 -174 10q-145 0 -385 -35q-41 -61 -215 -450q166 26 262 26q68 0 105.5 -36.5 t37.5 -102.5q0 -37 -10 -63q-57 10 -137 10q-53 0 -110.5 -6t-135.5 -18.5t-105 -16.5q-90 -211 -149.5 -390t-63.5 -243q367 74 691 96q53 -78 53 -163q0 -37 -4 -56q-152 4 -287 4q-233 0 -535 -53q-94 37 -182 180z" />
<glyph unicode="F" horiz-adv-x="1128" d="M231 14q51 106 248 611q-86 29 -112 100q18 18 172 53q121 324 155 488h-10q-78 0 -126 36.5t-48 96.5q0 41 18 78q63 -10 177 -11q203 0 445.5 22.5t256.5 22.5q98 0 141 -188q-106 10 -176 10q-160 0 -356 -30q-41 -61 -225 -478q186 29 274 29q66 0 103.5 -37 t37.5 -102q0 -43 -10 -64q-57 10 -137 11q-53 0 -114.5 -7.5t-138.5 -19.5t-108 -17q-180 -424 -243 -784q-131 29 -224 180z" />
<glyph unicode="G" horiz-adv-x="1331" d="M289 412q0 274 131 530t347 412.5t450 156.5q139 0 219 -60t80 -167q0 -135 -146 -266q-47 14 -82 51t-43 82q72 53 99.5 95t27.5 102q0 94 -112 94q-188 0 -410 -266q-152 -180 -221.5 -375t-69.5 -436q0 -176 66.5 -292t165.5 -126q129 29 250.5 187.5t138.5 307.5 q-158 -34 -206 -34h-3q-61 0 -107.5 30.5t-62.5 83.5q72 41 258 85t282 44q53 0 84 -36.5t31 -102.5q0 -41 -8 -63q-43 10 -94 12q-27 -182 -196 -377t-343 -240q-272 6 -399 143.5t-127 424.5z" />
<glyph unicode="H" horiz-adv-x="1382" d="M147 14q61 129 244 604q-68 29 -90 80q18 12 135 37l27 66q86 219 116.5 330.5t79.5 388.5q162 -29 279 -220q-45 -57 -252 -524q293 39 488 51q176 510 294 635q43 -4 125 -48t101 -79q-137 -129 -283 -547q41 -37 41 -92q0 -39 -16 -71q-27 4 -76 8 q-154 -487 -154 -744q0 -33 4 -53q-51 2 -74.5 21.5t-36 44t-30.5 32.5q-27 10 -45 75t-18 110q0 162 104 510q-74 -4 -254 -23.5t-254 -21.5q-168 -395 -231 -750q-131 31 -224 180z" />
<glyph unicode="I" horiz-adv-x="645" d="M268 117q0 221 172 722.5t289 622.5q43 -4 125 -48t98 -79q-111 -100 -228.5 -398t-188 -600t-70.5 -458q0 -35 6 -43q-41 2 -65.5 15.5t-32.5 29t-19.5 31.5t-27.5 22q-25 10 -41.5 74t-16.5 109z" />
<glyph unicode="J" horiz-adv-x="1048" d="M35 -57q0 119 117 350q51 -4 122.5 -37t98.5 -66q-63 -68 -105.5 -148.5t-42.5 -139.5q0 -74 60 -113q125 47 243.5 176t210.5 318q104 215 174 535.5t70 520.5q0 84 -8 174q164 0 309 -102q-86 -430 -123 -571q-182 -694 -473 -973q-145 -139 -276 -166 q-166 2 -271.5 68.5t-105.5 173.5z" />
<glyph unicode="K" horiz-adv-x="1337" d="M152 14q27 57 313 787q88 227 118.5 339.5t80.5 379.5q162 -29 278 -220q-16 -20 -37.5 -59t-54.5 -109.5t-55.5 -122t-72.5 -164t-75 -167.5q-202 -455 -272 -844q-131 31 -223 180zM684 649q264 391 493.5 626.5t364.5 235.5q55 0 117.5 -73.5t64.5 -143.5 q-252 -82 -482 -261t-396 -421q74 -190 195.5 -376.5t246.5 -272.5q-20 -43 -86.5 -81t-120.5 -38q-98 0 -177 174t-220 631z" />
<glyph unicode="L" horiz-adv-x="1024" d="M152 14q8 20 49 110.5t74.5 166.5t89 218t108.5 298q115 334 199 721q154 -33 258 -187q-68 -117 -275 -653q-37 -98 -108.5 -278.5t-101 -262t-29.5 -118.5q102 4 258 43q145 35 295 45q51 -88 51 -170q0 -31 -10 -66q-63 8 -152 8q-182 0 -524 -55q-96 35 -182 180z " />
<glyph unicode="M" horiz-adv-x="1929" d="M96 -29q0 141 318 715q186 338 330.5 542t277.5 279q57 0 171 -49t122 -78q-61 -127 -150.5 -449.5t-128.5 -602.5q141 336 383 707.5t381 471.5q57 0 171 -49t122 -78q-121 -217 -193.5 -612t-72.5 -715q0 -131 4 -205q-61 0 -148.5 28t-109.5 61q-2 39 -2 118 q0 473 145 1020q12 45 39 180q-115 -55 -274.5 -298.5t-285.5 -560.5t-142 -548q-6 -2 -25 -2q-57 0 -140 32t-93 59q-2 39 -2 118q0 473 145 1020q18 66 37 168q-100 -80 -256 -317.5t-292 -548.5t-157 -533q-98 29 -136 57.5t-38 69.5z" />
<glyph unicode="N" horiz-adv-x="1398" d="M190 -2q0 180 206 702.5t347 720.5l-14 86q57 0 184 -50t136 -77q-23 -121 -23 -360q0 -526 98 -873q102 512 234.5 924t206.5 420q45 -8 100 -49t78 -86q-121 -49 -249 -357.5t-204 -638t-80 -505.5q0 -4 2 -7q-8 -2 -26 -2q-96 0 -169 24t-93 67q-143 578 -168 1314 q-119 -188 -246 -631.5t-127 -682.5q0 -68 6 -93q-117 35 -158 67t-41 87z" />
<glyph unicode="O" horiz-adv-x="1480" d="M276 301q0 254 101.5 534.5t280 480.5t370.5 200q66 0 123 -25q78 -33 156.5 -94.5t83.5 -93.5q-66 14 -134 14q-180 0 -353 -165t-277.5 -414t-104.5 -490q0 -315 209 -316q100 0 223 74t224 193q141 168 225 425t84 511q0 88 -17 202q37 -18 57.5 -31.5t51.5 -47 t46 -93t15 -141.5q0 -279 -123.5 -538t-322.5 -431q-123 -106 -263 -166.5t-267 -60.5q-188 0 -288 121t-100 352z" />
<glyph unicode="P" horiz-adv-x="1314" d="M266 14q66 127 342 787q123 297 166 467q-199 -63 -311 -158q-35 25 -74 92.5t-43 114.5q119 82 335 136t415 54q233 0 369.5 -110.5t136.5 -292.5q0 -227 -208 -394t-495 -167q-51 0 -81 13t-66 52q-195 -426 -269 -774q-131 31 -217 180zM809 731q313 0 513 110.5 t200 272.5q0 109 -74 172.5t-211 63.5q-77 0 -160 -13l25 -37q-61 -78 -293 -569z" />
<glyph unicode="Q" horiz-adv-x="1472" d="M98 -221q12 104 78 159.5t199 71.5q-94 82 -94 287q0 281 122.5 566.5t314 469t380.5 183.5q64 0 125 -25q70 -31 145.5 -94.5t77.5 -93.5q-68 14 -127 14q-221 0 -413.5 -186.5t-309.5 -514.5q-104 -299 -104 -495q0 -115 47 -119q25 0 105.5 -18.5t123.5 -34.5 q78 4 182.5 71.5t204.5 180.5q176 197 277.5 464t101.5 539q0 96 -8 133q82 -41 117.5 -96t35.5 -141q0 -248 -146.5 -547t-367.5 -504q-145 -135 -237 -151q106 -57 263 -125t195 -74q20 2 53.5 26.5t55.5 55.5q27 -35 31 -64q-16 -57 -92 -140t-125 -95q-72 4 -130.5 31.5 t-183.5 113.5q-225 156 -351 211.5t-257 55.5q-229 0 -254 -154q-31 14 -35 39z" />
<glyph unicode="R" horiz-adv-x="1415" d="M264 14q53 102 342 787q119 281 164 467q-209 -72 -309 -158q-35 25 -74 92.5t-43 114.5q119 82 336 136t403 54q244 0 380 -101.5t136 -277.5q0 -193 -164.5 -339t-410.5 -181q66 -193 173.5 -383t211.5 -284q-18 -41 -75.5 -80t-104.5 -39q-88 0 -168 176t-191 602 q-63 0 -79 4q-14 8 -31 29q-207 -455 -279 -799q-131 29 -217 180zM815 750q307 0 506 109.5t199 279.5q0 211 -301 211q-57 0 -144 -11l25 -39q-29 -37 -117 -206.5t-168 -343.5z" />
<glyph unicode="S" horiz-adv-x="1437" d="M207 281q0 115 108 237q6 -68 71 -151.5t177 -149.5q213 -125 457 -125q106 0 185 27.5t116 72t54.5 79t19.5 65.5q0 27 -15.5 52.5t-50.5 52t-67.5 47t-93 50t-100.5 47t-114 50.5q-272 119 -381.5 214t-109.5 236q0 119 71.5 219.5t198.5 153.5t287 53q227 0 522 -131 q12 -70 12 -84q0 -68 -30.5 -126t-79.5 -83q-76 104 -221.5 157.5t-302.5 53.5q-147 0 -247 -43t-102 -112q8 -55 96.5 -124t176.5 -114t233 -112q229 -106 316.5 -193.5t87.5 -257.5q0 -215 -139.5 -356.5t-368.5 -141.5q-154 0 -331 58.5t-306 163t-129 215.5z" />
<glyph unicode="T" horiz-adv-x="1204" d="M442 1399q0 41 19 78q47 -23 201 -23q166 0 488.5 28.5t332.5 28.5q70 0 105.5 -52t53.5 -154q-117 10 -194 10q-123 0 -266 -17q-113 -225 -250 -641q-162 -492 -215 -829q-137 20 -230 172q59 221 269 799q117 319 155 467q-197 -25 -299 -25q-80 0 -125 45t-45 113z " />
<glyph unicode="U" horiz-adv-x="1427" d="M330 270q0 254 104.5 618.5t245.5 622.5q72 -4 174 -47t139 -86q-178 -238 -287.5 -559t-109.5 -583q0 -160 48 -232t161 -72q127 0 228.5 89.5t193.5 261.5q109 201 162 477t53 549q0 119 -8 176q23 0 94 -16.5t110 -36.5q-20 -324 -112 -661t-236 -568 q-229 -375 -563 -375q-190 0 -293.5 111.5t-103.5 330.5z" />
<glyph unicode="V" horiz-adv-x="1263" d="M489 561q0 102 7.5 411.5t7.5 536.5q55 0 185 -51t138 -78q-77 -210 -77 -823v-16q0 -326 30 -504q168 512 410 978t338 476q45 -8 96 -49t70 -86q-141 -49 -334 -355.5t-330 -632t-172 -499.5q-47 -25 -100 -25q-154 18 -215 93q-53 317 -54 624z" />
<glyph unicode="W" horiz-adv-x="1951" d="M449 305q0 203 37.5 586t52.5 618q55 0 178 -50t135 -79q-66 -152 -106.5 -480.5t-40.5 -631.5q0 -154 8 -245q117 174 327.5 727t257.5 759q57 0 182.5 -51t131.5 -78q-66 -152 -107 -480.5t-41 -631.5q0 -129 6 -223q180 473 399.5 916.5t293.5 521.5q104 -14 186 -105 q-160 -125 -427 -655t-382 -854q-52 -25 -104 -25q-156 18 -207 93q-20 113 -21 315q0 250 49 778q-285 -831 -477 -1161q-52 -25 -104 -25q-156 19 -207 93q-20 184 -20 368z" />
<glyph unicode="X" horiz-adv-x="1304" d="M139 -6q12 49 92 151q164 209 572 525q-133 661 -376 661h-1q25 59 79 104.5t116 55.5q49 0 77.5 -5t60.5 -33t50 -65.5t46 -125.5t50.5 -189.5t61.5 -279.5q131 139 244.5 287.5t158.5 234.5q23 39 23 80q0 37 -23 96q68 -39 100.5 -74t57.5 -92q-10 -98 -109.5 -216 t-429.5 -419q80 -369 151.5 -518t184.5 -180q-35 -39 -131 -85t-152 -52q-29 0 -46 18t-42.5 98t-52.5 205t-76 379q-238 -242 -390 -443.5t-152 -275.5q-51 6 -97.5 57.5t-46.5 100.5z" />
<glyph unicode="Y" horiz-adv-x="1255" d="M428 1456q41 16 154.5 33.5t195.5 19.5q0 -150 70 -451.5t115 -350.5q301 332 501 780q113 -12 181 -80q-432 -518 -637 -819q-147 -506 -148 -738q-45 0 -173 31t-142 45q20 37 43.5 90.5t41 97.5t44 121.5t38 113.5t39 126t33.5 107q-119 369 -202.5 582.5 t-153.5 291.5z" />
<glyph unicode="Z" horiz-adv-x="1429" d="M16 -162q0 94 80 137q236 340 602.5 673t761.5 587q-123 6 -260 6q-479 0 -643 -86q-18 66 -18 178q0 131 20 178q502 -88 914 -88q152 0 243 13q49 -68 49 -222q-223 -92 -444 -242.5t-388 -313t-291 -316.5t-189 -276q121 20 387 36q289 20 436 113q20 -41 40.5 -140.5 t20.5 -170.5q0 -23 -4 -43q-324 22 -367 22h-3q-272 0 -527.5 -57t-367.5 -170q-6 23 -20.5 58.5t-23 64t-8.5 59.5z" />
<glyph unicode="[" horiz-adv-x="790" d="M92 -100q84 180 342 905q205 573 244 772q225 43 391 43q80 0 109.5 -24.5t29.5 -69.5q0 -14 -8 -39q-61 6 -127 6q-133 0 -209 -8q-76 -315 -262 -797q-305 -784 -307 -876q231 66 342 65q121 0 121 -92q0 -14 -8 -39q-61 6 -123 6q-145 0 -369 -39q-72 27 -166 187z " />
<glyph unicode="\" horiz-adv-x="1351" d="M543 1522q14 33 101 75.5t136 42.5q82 -557 221.5 -1111t231.5 -758q-8 -33 -36 -61.5t-50 -33.5q-242 410 -604 1846z" />
<glyph unicode="]" horiz-adv-x="788" d="M14 -193q0 14 9 39q61 -6 127 -6q133 0 208 8q76 315 263 797q305 784 307 877q-231 -66 -342 -66q-121 0 -121 92q0 14 8 39q61 -6 123 -6q145 0 369 39q72 -27 165 -186q-84 -180 -342 -906q-205 -573 -243 -772q-225 -43 -391 -43q-80 0 -110 24.5t-30 69.5z" />
<glyph unicode="^" horiz-adv-x="739" d="M82 1069q156 88 274 313l-8 52q41 29 125 28q43 0 57 -2q16 -242 44 -358.5t83 -181.5l-18 -2q-57 0 -120.5 79.5t-110.5 204.5q-53 -82 -112.5 -134t-102.5 -52q-57 0 -111 53z" />
<glyph unicode="_" horiz-adv-x="1165" d="M84 -74q0 12 14 64q72 -10 181 -10q205 0 448.5 20t257.5 20q49 0 86 -48t53 -134q-104 10 -174 10q-158 0 -380 -28.5t-314 -28.5q-78 0 -125 36t-47 99z" />
<glyph unicode="`" horiz-adv-x="583" d="M41 1260q0 57 38 131.5t81 101.5q86 -141 189.5 -242.5t193.5 -136.5q-47 -39 -113 -39q-63 0 -147 40t-242 145z" />
<glyph unicode="a" horiz-adv-x="962" d="M170 203q0 147 82 319t205 291t229 125q41 -10 95.5 -66.5t58.5 -95.5q-164 -27 -326 -243t-162 -406q0 -39 29 -49q113 23 326 377q98 163 198 372q43 0 98.5 -25.5t53.5 -45.5q-186 -387 -187 -611q0 -121 54 -149q-59 -37 -133 -37q-111 0 -111 152q0 117 78 319 q-82 -186 -202 -322.5t-216 -152.5q-76 2 -123 71.5t-47 176.5z" />
<glyph unicode="b" horiz-adv-x="966" d="M225 203q0 236 108.5 573.5t264.5 606t283 323.5q41 -12 107.5 -54t90.5 -69q-449 -362 -659 -1143q115 213 271.5 380t242.5 167q66 -16 119 -78.5t61 -134.5q-4 -168 -100 -369.5t-233.5 -340t-248.5 -138.5q-47 0 -96 20t-49 40q190 127 349 377.5t194 480.5 q0 25 -27 33q-55 -2 -186 -172t-244 -378t-123 -307q-20 0 -35 41q-6 18 -47 50q-27 18 -35 39q-8 16 -8 53z" />
<glyph unicode="c" horiz-adv-x="860" d="M211 360q0 231 175 421t390 190q106 0 163.5 -53.5t57.5 -151.5q0 -94 -48 -171t-107 -77q-53 0 -92 55q137 125 137 228q0 59 -47 59q-41 0 -103.5 -40t-118.5 -101q-180 -203 -180 -469q0 -164 74 -199q61 8 160.5 57.5t193.5 118.5q20 -16 21 -41 q-68 -84 -174.5 -158.5t-175.5 -86.5q-135 12 -230.5 134.5t-95.5 284.5z" />
<glyph unicode="d" horiz-adv-x="886" d="M162 186q0 137 76.5 310.5t190.5 304t216 155.5q41 0 94.5 -24.5t94.5 -63.5q-18 172 -73.5 314.5t-199.5 371.5q14 39 76.5 89.5t114.5 58.5q117 -125 198.5 -362.5t81.5 -450.5q0 -209 -86 -435.5t-222 -384t-271 -180.5q-141 16 -216 91t-75 206zM344 88 q0 -101 92 -117q145 51 273.5 306t128.5 495q0 49 -2 59q-147 -63 -319.5 -323t-172.5 -420z" />
<glyph unicode="e" horiz-adv-x="827" d="M178 233q0 164 87 336t223.5 284t267.5 112q94 -13 176 -117q-14 -240 -140 -368t-407 -240q0 -8 -1 -25.5t-1 -28.5q0 -163 93 -163h1q68 0 146.5 45t123 87t105.5 107q20 -16 35 -35q-92 -121 -202 -202.5t-208 -104.5q-139 14 -219 101.5t-80 211.5zM401 317 q170 84 276 206t114 257q-115 -16 -228.5 -146t-161.5 -317z" />
<glyph unicode="f" horiz-adv-x="700" d="M180 -424q68 426 291 1210q-121 0 -182 -10q-18 18 -19 49q55 20 224 45q96 311 249.5 492.5t321.5 181.5q18 0 47 -3t35 -3q49 37 102 37q25 0 64 -27q-37 -63 -66 -174q-51 -152 -108 -196q-23 0 -25 59q-2 43 -12 84q-14 35 -15 70q0 23 11 88q-68 0 -164 -164 t-184 -428l172 6q23 -23 26 -121l-225 12q-353 -1057 -412 -1376q-51 20 -61 78q-8 55 -70 90z" />
<glyph unicode="g" horiz-adv-x="921" d="M-215 -610q0 20 27 43q51 -43 76.5 -55.5t68.5 -12.5q211 0 383 217t278 611q-47 -49 -134 -109.5t-142 -83.5q-70 12 -117 88t-47 172q0 154 105.5 325t263.5 284.5t299 113.5q72 0 108.5 -29.5t51.5 -101.5q-23 12 -58 12q-94 0 -240.5 -135t-256 -317.5t-109.5 -302.5 q0 -20 8 -21q35 0 121 70.5t166 160.5q180 203 276 457q115 -6 158 -49q-94 -219 -184 -461q-125 -338 -216 -523t-227 -335q-68 -74 -164 -117t-176 -43q-100 0 -195 42.5t-124 99.5z" />
<glyph unicode="h" horiz-adv-x="1058" d="M197 35q0 143 56 375.5t150 474.5q82 217 213.5 436t270.5 379q66 0 144.5 -30t113.5 -68q-322 -328 -471 -621q-156 -303 -217 -553q393 502 583 502q53 0 116 -36t108 -93q-125 -137 -254 -364.5t-129 -311.5q0 -20 6 -27.5t26 -7.5q18 0 35 4t26 8t11 4q14 -25 14 -32 q0 -14 -82.5 -54t-115.5 -40q-41 0 -76 40.5t-35 88.5q0 59 65.5 232t166.5 374q0 8 -9 8q-16 0 -79 -49q-145 -109 -294 -312.5t-241 -420.5q-6 -14 -18.5 -26.5t-20.5 -12.5q-14 0 -37.5 50t-25.5 83z" />
<glyph unicode="i" horiz-adv-x="483" d="M201 137q0 68 69 389q6 31 18.5 68t36 91t60.5 101.5t80 67.5q43 -10 98 -46t92 -89q-37 -41 -64.5 -82t-52 -93t-38 -86t-39 -102.5t-37.5 -101.5q-59 -156 -62 -223q0 -68 -12 -68q-31 0 -90 48t-59 126zM573 1130q0 37 19.5 121t44.5 148q47 0 132 -49.5t116 -94.5 q-47 -43 -132 -147t-100 -137q-25 4 -43 21.5t-18 33.5q0 12 6 37q-25 25 -25 67z" />
<glyph unicode="j" horiz-adv-x="483" d="M-426 -623q2 14 13.5 27.5t21.5 15.5q67 -69 161 -69h3q68 0 114.5 35.5t102 155.5t111 309.5t143.5 531.5q78 303 149.5 443.5t151.5 140.5q57 0 137 -56q-121 -215 -154 -333q-176 -621 -270 -875q-90 -242 -180 -343t-213 -101q-88 0 -172 33.5t-119 84.5zM559 1233 q0 37 20.5 123t43.5 143q47 0 132 -49t115 -94q-49 -45 -133 -148.5t-98 -136.5q-25 4 -43 21.5t-18 35.5q0 10 6 35q-25 25 -25 70z" />
<glyph unicode="k" horiz-adv-x="1056" d="M203 193q0 143 133 482t305 649t270 380q57 -4 125 -78t68 -131q-184 -147 -368.5 -443t-280.5 -597q133 227 280.5 362t270.5 139q90 -66 90 -174q0 -131 -97.5 -255t-218.5 -148q111 -379 357 -518q-18 -43 -81 -77t-128 -34q-111 0 -191 215q-63 174 -110 445 q63 43 161 137q180 174 181 301q0 16 -23 16q-82 -4 -214 -142t-251 -343q-47 -84 -79.5 -204t-32.5 -214q0 -29 6 -47q-63 6 -78 33q-33 51 -51 65q-43 34 -43 181z" />
<glyph unicode="l" horiz-adv-x="483" d="M197 131q0 182 163 633q252 686 457 936q49 -8 131 -55.5t99 -73.5q-307 -362 -502 -903q-176 -492 -176 -758q0 -49 2 -60q-61 6 -76 39q-14 31 -55 60q-43 28 -43 182z" />
<glyph unicode="m" horiz-adv-x="1566" d="M176 133q4 117 53 275q68 219 267 567q106 -23 200 -117q-18 -59 -145 -270t-145 -338q57 82 88.5 124t97 130t113 138t106.5 108.5t110.5 86t94.5 27.5q45 0 102.5 -27.5t63.5 -41.5q-12 -49 -127 -257t-125 -270q225 307 370.5 456.5t253.5 149.5q98 0 127 -83 q-16 -57 -83.5 -195.5t-120 -269.5t-52.5 -217q0 -41 11.5 -55.5t36.5 -14.5q18 0 45.5 9t31.5 9q16 -10 17 -43q-97 -75 -179 -75h-2q-169 0 -169 204q0 68 21.5 147t38.5 120t60 128t45 91q-59 -4 -168.5 -129t-251 -320.5t-167.5 -228.5q-98 41 -125 143q51 305 258 600 q-59 -2 -189.5 -142t-259.5 -323q-37 -53 -86 -126.5t-74.5 -109.5t-37.5 -44q-80 57 -105 184z" />
<glyph unicode="n" horiz-adv-x="1105" d="M154 57q0 80 43 234.5t110 308.5q49 111 98.5 204t81 138t43.5 51q53 -16 100.5 -72.5t69.5 -123.5q-23 -53 -152.5 -273.5t-139.5 -292.5q47 49 149 170t123 144q295 313 430 313q88 0 145 -110q0 -2 -6 -6.5t-21.5 -15.5t-31.5 -30q-68 -88 -140.5 -254t-72.5 -280 q0 -47 12.5 -63.5t38.5 -16.5q16 0 47 10t39 10q18 -10 19 -41q-33 -29 -88.5 -56.5t-87.5 -27.5q-111 0 -153 57.5t-42 160.5q0 109 113 368q-4 0 -27 -12t-62.5 -41t-76.5 -64q-176 -170 -330 -383q-104 -147 -137 -165q-70 41 -94 159z" />
<glyph unicode="o" horiz-adv-x="903" d="M184 260q0 164 94.5 341t239.5 284q113 84 211 84q66 -35 129 -146q6 0 18.5 1t18.5 1q109 0 109 -192q0 -256 -159 -454t-405 -251q-117 12 -186.5 102.5t-69.5 229.5zM379 158q0 -49 16.5 -94.5t36.5 -51.5q184 41 303 219.5t119 415.5q0 96 -27 137 q-155 -45 -282 -211q-70 -94 -118 -213.5t-48 -201.5z" />
<glyph unicode="p" horiz-adv-x="1019" d="M2 -469q0 88 55.5 288.5t143.5 424.5q182 461 237 633q16 51 64.5 133t83.5 112q72 -10 135 -36.5t78 -51.5q-57 -53 -135 -203.5t-109 -261.5q43 74 154 189q156 162 258 162q78 0 128 -43t50 -111q0 -307 -191 -553q-72 -92 -181 -159.5t-187 -67.5q-82 0 -103 53 q160 94 296 325.5t186 493.5q-160 -84 -265 -215q-152 -188 -190.5 -244.5t-79.5 -150.5q-133 -299 -301 -998q-23 4 -39 33q-31 35 -41 39q-29 8 -33 62q-14 49 -14 147z" />
<glyph unicode="q" horiz-adv-x="925" d="M188 299q0 115 101 319q164 326 487 386q57 -6 112.5 -51.5t63.5 -92.5q4 12 29 30.5t37 18.5q33 0 68.5 -15t52.5 -38q-233 -473 -342 -723q-209 -492 -267 -876q-8 -8 -36 -9q-33 0 -37 21q-8 25 -43 35q-37 10 -43 53q23 360 215 815q-147 -150 -203 -160 q-57 0 -126 101.5t-69 185.5zM377 125q0 -14 18 -14q143 99 256 251q80 109 149.5 227t98.5 180l29 62q-18 18 -84 19q-53 0 -126 -53.5t-130 -132.5q-211 -291 -211 -539z" />
<glyph unicode="r" horiz-adv-x="825" d="M150 41q20 121 96 365.5t149 416.5q47 115 92 160q57 -8 119 -39t86 -59q-100 -119 -182 -365q238 215 354 389q12 10 43 11q72 0 92 -35q-36 -95 -36 -190v-5q0 -90 26 -135q-4 -33 -84 -113q-119 59 -162 189q-193 -133 -279.5 -275.5t-146.5 -425.5q-37 4 -95 42 t-72 69z" />
<glyph unicode="s" horiz-adv-x="708" d="M41 -53q0 158 122 273.5t300 127.5q0 74 -32 197t-32 176q0 109 82 210t189 124q47 -12 135 -102.5t100 -137.5q-4 -78 -41 -156.5t-69 -78.5q-23 2 -27 30q0 6 16.5 49t16.5 62q0 29 -14.5 48t-34.5 19q-168 0 -168 -403q0 -20 2 -25q115 4 143 5q2 -4 2 -17 q0 -18 -8 -26q-96 -23 -116.5 -32t-20.5 -32q0 -8 1 -31.5t1 -42.5q0 -170 -94.5 -275.5t-257.5 -121.5q-57 4 -118 53t-77 107zM188 -45q0 -45 41 -74q98 39 170 146.5t72 214.5q-80 -10 -181.5 -113.5t-101.5 -173.5z" />
<glyph unicode="t" horiz-adv-x="720" d="M256 123q0 100 51 285.5t129 375.5h-117q-8 12 -17 52.5t-9 68.5q29 -2 95.5 -6t96.5 -6q61 123 137 233.5t109 128.5q43 0 118 -25.5t95 -47.5q-98 -123 -201 -297q92 0 168 8q23 -23 23 -57q-100 -37 -244 -41q-100 -197 -158.5 -383.5t-58.5 -313.5q0 -90 68 -100 q123 14 215 88q12 -18 14 -31q-23 -35 -105.5 -90t-117.5 -59q-100 2 -195.5 73.5t-95.5 143.5z" />
<glyph unicode="u" horiz-adv-x="1011" d="M174 119q0 98 16 174q43 182 145.5 387t221.5 291q45 0 100.5 -16.5t81.5 -47.5q-18 -18 -51 -67t-93 -162t-116 -244q-25 -55 -55.5 -162.5t-30.5 -156.5q0 -23 15 -37q29 12 74.5 64.5t133.5 172.5q2 4 36 48.5t48.5 66t41 61t45 75.5t30.5 71q68 186 160 274 q53 0 114.5 -21.5t79.5 -43.5q-29 -68 -105.5 -220.5t-114.5 -260t-38 -203.5q0 -70 22.5 -128.5t22.5 -60.5l-8 -8q-29 0 -88 24.5t-106 55.5q-66 55 -66 166q0 43 10 74q-10 0 -52 -51.5t-95 -123t-68 -87.5q-57 -59 -88 -64q-72 4 -139.5 48t-83.5 112z" />
<glyph unicode="v" horiz-adv-x="917" d="M262.5 99.5q18.5 52.5 36.5 150.5t18 233q0 49 -3 135.5t-3 106.5q0 86 31 131t117 45t116 -29q-27 -104 -30 -309q-6 -311 -56 -467q0 -8 7 -8q59 45 152 162t165 237q141 244 207 492q27 0 71 -16.5t56 -30.5q-12 -260 -354 -651q-203 -238 -435 -379q-114 43 -114 124 q0 21 18.5 73.5z" />
<glyph unicode="w" horiz-adv-x="1300" d="M217 84q0 82 34 274.5t75 337.5q55 201 223 201q47 0 90 -14.5t51 -36.5q-39 -31 -69.5 -79t-48 -88t-35 -113.5t-23.5 -106.5t-18.5 -120t-14.5 -103q152 201 236 278q59 55 81.5 92t43.5 94q43 131 88 177q8 2 35 2q131 0 139 -45q-25 -33 -48.5 -96.5t-45 -158 t-35.5 -162t-33.5 -179t-23.5 -136.5q20 8 104 108.5t143 190.5q74 113 107 212.5t74 316.5q12 16 53 27.5t78 11.5q31 0 45 -11q-18 -215 -104.5 -365.5t-289.5 -369.5q-259 -280 -315 -280q-47 0 -77.5 36.5t-30.5 94.5q0 106 22 196q39 152 43 201q-47 -23 -203 -221 q-55 -76 -122.5 -176.5t-106.5 -151.5q-121 37 -121 162z" />
<glyph unicode="x" horiz-adv-x="872" d="M57 -16q92 51 219 147t199 178q-68 158 -115 334t-47 258q0 29 8.5 38t32.5 9q96 0 226 -43q-4 -29 -5 -86q0 -164 58 -342q162 186 301 496q115 -20 135 -72q-49 -199 -393 -543q45 -127 160 -346q-20 -33 -67.5 -55.5t-94.5 -26.5q-90 106 -160 277 q-207 -186 -403 -301q-49 10 -54 78z" />
<glyph unicode="y" horiz-adv-x="1001" d="M-193 -598q0 25 29 43q47 -43 74 -55.5t72 -12.5q233 0 439 263.5t320 705.5q-215 -340 -346 -387q-72 4 -140.5 48t-84.5 112q0 100 18 174q45 182 147.5 387t219.5 291q123 0 186 -64q-33 -29 -108.5 -154.5t-157.5 -318.5q-25 -63 -55.5 -167.5t-30.5 -151.5 q0 -23 14 -37q92 16 238 229q72 106 181.5 309t164.5 295q53 0 116.5 -21.5t82.5 -43.5q-147 -316 -217 -529q-94 -305 -195.5 -503.5t-249.5 -350.5q-192 -202 -393 -202h-2q-100 0 -195.5 42t-126.5 99z" />
<glyph unicode="z" horiz-adv-x="966" d="M125 29q0 68 210 271.5t476 395.5q-160 35 -217 35q-115 0 -199 -69q-94 82 -94 188q0 33 2 39q76 72 184 72q82 0 233.5 -58.5t197.5 -58.5q51 0 96 22q18 -14 33.5 -58t15.5 -83q-127 -49 -334 -227.5t-323 -339.5q43 -18 116 -19q94 0 191.5 31t150.5 76 q96 -61 97 -180q0 -14 -5 -52q-94 -59 -204 -59q-80 0 -218.5 35t-183.5 35q-98 0 -160 -93q-59 25 -65 97z" />
<glyph unicode="{" horiz-adv-x="686" d="M248 721l71 33q82 37 133.5 108.5t70 141t46 182t54.5 184.5q51 133 127 213t168 80q66 0 143 -82q-59 -31 -102.5 -73t-71 -103.5t-42 -107.5t-32.5 -130q-14 -59 -23.5 -93t-28 -87t-40 -88t-52 -73t-74.5 -65.5t-97 -45.5q154 -92 153 -260q0 -90 -49 -217t-97 -238 t-48 -162q0 -55 45 -86t133 -51l-17 -33q-344 51 -344 248q0 78 94.5 291t94.5 313q0 160 -184 160q-27 14 -31 41z" />
<glyph unicode="|" horiz-adv-x="565" d="M201 -180q8 367 206.5 1012t366.5 868q49 -8 131 -55.5t99 -73.5q-160 -176 -300.5 -531.5t-216 -679t-118.5 -626.5z" />
<glyph unicode="}" horiz-adv-x="686" d="M57 -250q59 31 102.5 73t71 103.5t42 107.5t32.5 130q14 59 23.5 93t28 87t40 88t52 73t74.5 65.5t98 45.5q-154 92 -154 261q0 90 49 217t97.5 237.5t48.5 161.5q0 55 -45.5 86t-133.5 51l17 33q344 -51 344 -248q0 -78 -94.5 -291t-94.5 -313q0 -160 185 -160 q27 -14 30 -41l-71 -32q-82 -37 -133.5 -109t-69.5 -141.5t-46 -182t-54 -184.5q-51 -133 -127 -213t-168 -80q-66 0 -144 82z" />
<glyph unicode="~" horiz-adv-x="903" d="M283 551q76 45 182 45q41 0 116.5 -9t112.5 -9q127 0 187 36q55 -55 75 -161q-76 -59 -176 -60q-76 0 -188.5 40t-218.5 40q-45 0 -72 -2q-10 17 -18 80z" />
<glyph unicode="&#xa2;" horiz-adv-x="1034" d="M319 637q0 229 168 407.5t447 200.5q39 162 59 287q87 -24 142 -94q-10 -31 -31 -96.5t-31 -98.5q86 -16 141.5 -69.5t55.5 -131.5q0 -94 -48 -170.5t-108 -76.5q-51 0 -92 55q137 125 137 227q0 76 -115 76q-178 -563 -280 -811q145 51 293 162q20 -16 20 -41 q-55 -68 -163.5 -135.5t-198.5 -98.5q-66 -145 -158 -301q-31 6 -37 31q51 100 111 262q-147 25 -229.5 140.5t-82.5 275.5zM547 526q0 -152 125 -190q129 369 233 788q-166 -66 -262 -243t-96 -355z" />
<glyph unicode="&#xa3;" horiz-adv-x="1327" d="M129 80q178 61 278.5 186t167.5 324q-45 -4 -65 -4q-150 0 -150 121q0 33 9 59q92 -12 157 -12q68 0 101 2l26 100q43 164 88 272.5t112 194.5t159 130t221 54q217 -82 217 -237q0 -109 -127 -301q-33 10 -65.5 42.5t-47.5 73.5q150 102 150 211q0 84 -94 127 q-45 -8 -83 -28.5t-72 -65.5t-56.5 -78.5t-52 -109.5t-43 -111t-44 -131t-41.5 -125q201 20 205 21q90 0 117 -160q-84 10 -147 10q-100 0 -226 -18q-53 -141 -106 -237.5t-101.5 -143.5t-76 -65.5t-62.5 -30.5q51 0 180 -18.5t199 -18.5q211 0 356 129q55 -84 56 -193 q0 -33 -6 -59q-162 -106 -338 -107q-117 0 -315.5 61.5t-293.5 61.5q-92 0 -114 -55q-23 0 -46.5 40t-25.5 89z" />
<glyph unicode="&#xa5;" horiz-adv-x="1394" d="M467 299q0 33 8 59q90 -12 146 -12q63 0 174 4q10 33 28.5 91.5t26.5 82.5q-99 -12 -150 -12q-68 0 -101.5 33t-33.5 88q0 33 8 59q90 -12 146 -12q78 0 117 2q-213 649 -324 774q41 16 154.5 33.5t195.5 19.5q0 -150 69.5 -451.5t115.5 -350.5q301 332 501 780 q113 -12 181 -80q-387 -463 -553 -696q86 10 112 10q86 0 113 -160q-84 10 -141 10q-88 0 -177 -10q-18 -63 -51 -190q147 16 158 16q86 0 113 -160q-84 10 -142 11q-78 0 -164 -11q-53 -246 -53 -377q-45 0 -173 31t-142 45q51 90 112 262q-78 -10 -139 -10 q-68 0 -101.5 33t-33.5 88z" />
<glyph unicode="&#xa8;" horiz-adv-x="624" d="M41 1239q0 188 119 195q29 -4 75 -32t64 -59q0 -2 -33 -52t-70.5 -106.5t-50.5 -66.5q-84 35 -104 121zM309 1194q0 190 115 195q27 -2 73 -30t68 -61q0 -8 -67.5 -108t-89.5 -113q-72 27 -99 117z" />
<glyph unicode="&#xa9;" horiz-adv-x="1366" d="M299 459q0 123 60.5 264t155.5 258t224 193.5t254 76.5q182 0 339 -143t157 -338q0 -117 -76 -227l-4 14q31 70 31 172q0 156 -117 278.5t-238 122.5q-111 0 -247 -115.5t-229 -277.5t-93 -286q0 -104 74 -166t217 -62q156 0 310 75t263 218l11 -8q-104 -186 -280.5 -303 t-391.5 -117q-203 0 -311.5 103.5t-108.5 267.5zM725 549q0 125 121 266t252 141q70 0 108.5 -43t38.5 -102t-40 -101t-118 -44q2 2 27 30.5t43.5 56t18.5 48.5q0 33 -48 41q-86 -18 -174 -124t-88 -177q0 -57 62 -58q35 0 100.5 31t89.5 33q12 0 17 -19q-6 -14 -100.5 -67 t-151.5 -62q-158 20 -158 150z" />
<glyph unicode="&#xab;" horiz-adv-x="2199" d="M236 569q18 20 63 40t86 31t111.5 28.5t101.5 25.5q143 41 254 96.5t315 182.5q55 -25 105.5 -88.5t50.5 -106.5q0 -51 -63 -129q-14 27 -45 27t-103 -17q-104 -25 -373.5 -114.5t-285.5 -95.5q18 -35 57 -64t143 -84q94 -49 285 -111q10 -4 42 -12t36 -10 q-2 -16 -19.5 -36t-33.5 -26q-176 41 -292 79t-229 104q-104 61 -161 149q-43 68 -45 131zM1280 569q18 20 63.5 40t86 31t111.5 28.5t101 25.5q143 41 254 96.5t316 182.5q55 -25 105 -88.5t50 -106.5q0 -51 -63 -129q-14 27 -45 27t-102 -17q-104 -25 -374 -114.5 t-286 -95.5q18 -35 57 -64t144 -84q94 -49 284 -111q10 -4 42 -12t36 -10q-2 -16 -19.5 -36t-33.5 -26q-176 41 -292 79t-228 104q-104 61 -162 149q-43 68 -45 131z" />
<glyph unicode="&#xad;" horiz-adv-x="1077" d="M279 516q0 18 12 62q45 -8 145 -9q164 0 360.5 20.5t209.5 20.5q39 0 68.5 -48t43.5 -134q-84 10 -141 10q-127 0 -306 -28.5t-253 -28.5q-63 0 -101 36t-38 99z" />
<glyph unicode="&#xae;" horiz-adv-x="1363" d="M299 459q0 123 60.5 264t155.5 258t224 193.5t254 76.5q182 0 339 -143t157 -338q0 -119 -78 -227l-4 14q33 68 33 172q0 156 -117 278.5t-238 122.5q-111 0 -248 -115.5t-230 -277.5t-93 -286q0 -104 75 -166t218 -62q156 0 310 75t263 218l11 -8q-104 -186 -281.5 -303 t-392.5 -117q-201 0 -309.5 103.5t-108.5 267.5zM657 463q45 37 96.5 92t83 95t83 109.5t65.5 88.5q-74 -10 -113 -49q-25 8 -45 31.5t-22 52.5q74 61 199 61q90 0 163.5 -39t98.5 -112q-4 -74 -57.5 -121t-114 -61.5t-123.5 -14.5q63 -74 153 -74q49 0 90 29 q0 -53 -32.5 -88t-91.5 -35q-66 0 -117 62.5t-92 76.5q-92 -80 -107 -168q-78 0 -117 64zM954 647q2 -2 11 -2q199 0 241 111q-6 49 -84 84q-47 -41 -97.5 -98.5t-70.5 -94.5z" />
<glyph unicode="&#xb4;" horiz-adv-x="583" d="M41 1114q90 35 193.5 136.5t189.5 242.5q43 -27 81 -101.5t38 -131.5q-158 -104 -242 -144.5t-147 -40.5q-66 0 -113 39z" />
<glyph unicode="&#xb8;" horiz-adv-x="522" d="M41 -309q16 49 87.5 157.5t145.5 186.5l52 -6q-119 -141 -168 -256q39 20 102.5 36.5t101.5 16.5q18 0 68.5 -42t50.5 -58q0 -41 -172 -190.5t-221 -149.5q-8 0 -25.5 30.5t-17.5 42.5q96 82 146.5 137.5t103.5 141.5q-90 -16 -238 -72q-12 6 -16 25z" />
<glyph unicode="&#xbb;" horiz-adv-x="2136" d="M199 193q0 90 170 145q367 123 659 211q-18 35 -57 63.5t-144 83.5q-242 129 -485 133q2 18 19.5 39t33.5 27q117 0 238 -29.5t198.5 -62.5t206.5 -94q199 -119 207 -281q-18 -20 -63 -39.5t-86 -31t-112 -29t-101 -25.5q-143 -41 -254 -96t-316 -182q-115 92 -114 168z M1182 193q0 90 170 145q367 123 659 211q-18 35 -57 63.5t-144 83.5q-242 129 -485 133q2 18 19.5 39t33.5 27q117 0 238 -29.5t198.5 -62.5t206.5 -94q199 -119 207 -281q-18 -20 -63 -39.5t-86 -31t-112 -29t-101 -25.5q-143 -41 -254 -96t-316 -182q-115 92 -114 168z " />
<glyph unicode="&#xc0;" horiz-adv-x="1314" d="M125 -27q0 143 272 623q-139 4 -164 4q23 57 222 92q162 266 354 476t360 300q4 37 5 39q57 0 170.5 -49t121.5 -78q-156 -274 -241 -921q-25 -186 -25 -420q0 -123 4 -191q-6 -2 -24 -2q-57 0 -140.5 32t-93.5 59q-2 35 -2 106q0 264 41 528q-109 8 -436 21 q-111 -205 -166 -367q-72 -205 -84 -381q-98 29 -136 57.5t-38 71.5zM621 713q172 14 391 18q29 156 78 344q20 74 40 185q-102 -39 -241 -189.5t-268 -357.5zM1059 1677q0 37 38 78t81 53q184 -162 383 -204q-47 -39 -113 -39q-115 0 -389 112z" />
<glyph unicode="&#xc2;" horiz-adv-x="1314" d="M125 -27q0 143 272 623q-139 4 -164 4q23 57 222 92q162 266 354 476t360 300q4 37 5 39q57 0 170.5 -49t121.5 -78q-156 -274 -241 -921q-25 -186 -25 -420q0 -123 4 -191q-6 -2 -24 -2q-57 0 -140.5 32t-93.5 59q-2 35 -2 106q0 264 41 528q-109 8 -436 21 q-111 -205 -166 -367q-72 -205 -84 -381q-98 29 -136 57.5t-38 71.5zM621 713q172 14 391 18q29 156 78 344q20 74 40 185q-102 -39 -241 -189.5t-268 -357.5zM1018 1610q156 39 280 145q-4 8 -8 25q41 29 125 28q44 0 58 -2q14 -117 37.5 -175t68.5 -87q-4 -2 -18 -2 q-104 0 -203 115q-123 -92 -230 -92q-68 0 -110 45z" />
<glyph unicode="&#xc6;" horiz-adv-x="1871" d="M145 -27q0 57 85 250t212 408q-127 29 -170 96q126 6 240 18q201 315 413 521.5t402 206.5q37 0 114 -3.5t113 -3.5q102 0 217 10.5t192 21.5t85 11q47 0 84 -59t55 -160q-119 41 -485 41q-57 0 -88 -2l20 -29q-47 -63 -221 -452q23 0 85 4t93 4q109 0 169.5 -37 t60.5 -102q0 -37 -17 -64q-92 10 -219 11q-98 0 -256 -11q-94 -213 -155.5 -398t-65.5 -249q367 74 690 96q53 -78 53 -163q0 -37 -4 -56q-152 4 -286 4q-233 0 -535 -53q-94 37 -182 180q88 182 254 625q-354 -27 -482 -27h-45q-90 -164 -168 -387q-72 -205 -84 -381 q-98 29 -136 57.5t-38 71.5zM655 758q141 14 510 61q107 277 150 492q-164 -25 -337 -170.5t-323 -382.5z" />
<glyph unicode="&#xc7;" horiz-adv-x="1239" d="M291 401q0 283 127 540t339 413.5t447 156.5q139 0 219 -59t80 -166q0 -80 -44 -170t-113 -147q-51 8 -92.5 48t-49.5 93q156 125 156 242q0 90 -113 90q-92 0 -197.5 -73t-189.5 -193q-285 -410 -285 -838q0 -150 46.5 -243t126.5 -109q186 43 518 352q20 -20 24 -43 q-117 -158 -249 -282t-234 -173q-53 -68 -78 -131q39 20 102.5 36.5t102.5 16.5q18 0 68.5 -42t50.5 -58q0 -41 -172 -190.5t-222 -149.5q-8 0 -25.5 31t-17.5 43q96 82 146.5 137t103.5 141q-90 -16 -237 -71q-12 6 -17 24q20 68 129 217q-221 23 -335.5 163t-114.5 394z " />
<glyph unicode="&#xc8;" d="M221 14q86 178 256 627q-92 29 -121 102q18 18 181 58q109 289 145 463q-70 2 -112 38.5t-42 94.5q0 37 17 78q66 -10 178 -11q203 0 445.5 22.5t256.5 22.5q47 0 84 -49t56 -139q-104 10 -174 10q-145 0 -385 -35q-41 -61 -215 -450q166 26 262 26q68 0 105.5 -36.5 t37.5 -102.5q0 -37 -10 -63q-57 10 -137 10q-53 0 -110.5 -6t-135.5 -18.5t-105 -16.5q-90 -211 -149.5 -390t-63.5 -243q367 74 691 96q53 -78 53 -163q0 -37 -4 -56q-152 4 -287 4q-233 0 -535 -53q-94 37 -182 180zM811 1677q0 37 38 78t81 53q184 -162 383 -204 q-47 -39 -113 -39q-115 0 -389 112z" />
<glyph unicode="&#xc9;" d="M221 14q86 178 256 627q-92 29 -121 102q18 18 181 58q109 289 145 463q-70 2 -112 38.5t-42 94.5q0 37 17 78q66 -10 178 -11q203 0 445.5 22.5t256.5 22.5q47 0 84 -49t56 -139q-104 10 -174 10q-145 0 -385 -35q-41 -61 -215 -450q166 26 262 26q68 0 105.5 -36.5 t37.5 -102.5q0 -37 -10 -63q-57 10 -137 10q-53 0 -110.5 -6t-135.5 -18.5t-105 -16.5q-90 -211 -149.5 -390t-63.5 -243q367 74 691 96q53 -78 53 -163q0 -37 -4 -56q-152 4 -287 4q-233 0 -535 -53q-94 37 -182 180zM915 1604q199 42 383 204q43 -12 81 -53t38 -78 q-274 -113 -389 -112q-66 0 -113 39z" />
<glyph unicode="&#xca;" d="M221 14q86 178 256 627q-92 29 -121 102q18 18 181 58q109 289 145 463q-70 2 -112 38.5t-42 94.5q0 37 17 78q66 -10 178 -11q203 0 445.5 22.5t256.5 22.5q47 0 84 -49t56 -139q-104 10 -174 10q-145 0 -385 -35q-41 -61 -215 -450q166 26 262 26q68 0 105.5 -36.5 t37.5 -102.5q0 -37 -10 -63q-57 10 -137 10q-53 0 -110.5 -6t-135.5 -18.5t-105 -16.5q-90 -211 -149.5 -390t-63.5 -243q367 74 691 96q53 -78 53 -163q0 -37 -4 -56q-152 4 -287 4q-233 0 -535 -53q-94 37 -182 180zM770 1610q156 39 281 145q-4 8 -9 25q41 29 125 28 q44 0 58 -2q14 -117 37.5 -175t68.5 -87q-4 -2 -18 -2q-104 0 -203 115q-123 -92 -229 -92q-68 0 -111 45z" />
<glyph unicode="&#xcb;" d="M221 14q86 178 256 627q-92 29 -121 102q18 18 181 58q109 289 145 463q-70 2 -112 38.5t-42 94.5q0 37 17 78q66 -10 178 -11q203 0 445.5 22.5t256.5 22.5q47 0 84 -49t56 -139q-104 10 -174 10q-145 0 -385 -35q-41 -61 -215 -450q166 26 262 26q68 0 105.5 -36.5 t37.5 -102.5q0 -37 -10 -63q-57 10 -137 10q-53 0 -110.5 -6t-135.5 -18.5t-105 -16.5q-90 -211 -149.5 -390t-63.5 -243q367 74 691 96q53 -78 53 -163q0 -37 -4 -56q-152 4 -287 4q-233 0 -535 -53q-94 37 -182 180zM913 1614q0 188 119 194q29 -4 75 -31.5t64 -58.5 q0 -2 -28.5 -35.5t-61 -71.5t-43.5 -46q-109 20 -125 49zM1182 1614q0 190 114 194q27 -2 73 -29.5t69 -60.5q0 -6 -58.5 -76.5t-79.5 -78.5q-89 12 -118 51z" />
<glyph unicode="&#xce;" horiz-adv-x="645" d="M268 117q0 221 172 722.5t289 622.5q43 -4 125 -48t98 -79q-111 -100 -228.5 -398t-188 -600t-70.5 -458q0 -35 6 -43q-41 2 -65.5 15.5t-32.5 29t-19.5 31.5t-27.5 22q-25 10 -41.5 74t-16.5 109zM616 1610q156 39 281 145q-4 8 -8 25q41 29 125 28q43 0 57 -2 q14 -117 38 -175t69 -87q-4 -2 -19 -2q-104 0 -203 115q-123 -92 -229 -92q-68 0 -111 45z" />
<glyph unicode="&#xcf;" horiz-adv-x="645" d="M268 117q0 221 172 722.5t289 622.5q43 -4 125 -48t98 -79q-111 -100 -228.5 -398t-188 -600t-70.5 -458q0 -35 6 -43q-41 2 -65.5 15.5t-32.5 29t-19.5 31.5t-27.5 22q-25 10 -41.5 74t-16.5 109zM760 1614q0 188 119 194q29 -4 74.5 -31.5t64.5 -58.5q0 -2 -28.5 -35.5 t-61.5 -71.5t-43 -46q-109 20 -125 49zM1028 1614q0 190 115 194q27 -2 73 -29.5t68 -60.5q0 -6 -58.5 -76.5t-78.5 -78.5q-90 12 -119 51z" />
<glyph unicode="&#xd4;" horiz-adv-x="1480" d="M276 301q0 254 101.5 534.5t280 480.5t370.5 200q66 0 123 -25q78 -33 156.5 -94.5t83.5 -93.5q-66 14 -134 14q-180 0 -353 -165t-277.5 -414t-104.5 -490q0 -315 209 -316q100 0 223 74t224 193q141 168 225 425t84 511q0 88 -17 202q37 -18 57.5 -31.5t51.5 -47 t46 -93t15 -141.5q0 -279 -123.5 -538t-322.5 -431q-123 -106 -263 -166.5t-267 -60.5q-188 0 -288 121t-100 352zM1081 1610q156 39 281 145q-4 8 -8 25q41 29 125 28q43 0 57 -2q14 -117 37.5 -175t68.5 -87q-4 -2 -18 -2q-104 0 -203 115q-123 -92 -229 -92 q-68 0 -111 45z" />
<glyph unicode="&#xd9;" horiz-adv-x="1427" d="M330 270q0 254 104.5 618.5t245.5 622.5q72 -4 174 -47t139 -86q-178 -238 -287.5 -559t-109.5 -583q0 -160 48 -232t161 -72q127 0 228.5 89.5t193.5 261.5q109 201 162 477t53 549q0 119 -8 176q23 0 94 -16.5t110 -36.5q-20 -324 -112 -661t-236 -568 q-229 -375 -563 -375q-190 0 -293.5 111.5t-103.5 330.5zM924 1677q0 37 37.5 78t80.5 53q184 -162 383 -204q-47 -39 -112 -39q-115 0 -389 112z" />
<glyph unicode="&#xdb;" horiz-adv-x="1427" d="M330 270q0 254 104.5 618.5t245.5 622.5q72 -4 174 -47t139 -86q-178 -238 -287.5 -559t-109.5 -583q0 -160 48 -232t161 -72q127 0 228.5 89.5t193.5 261.5q109 201 162 477t53 549q0 119 -8 176q23 0 94 -16.5t110 -36.5q-20 -324 -112 -661t-236 -568 q-229 -375 -563 -375q-190 0 -293.5 111.5t-103.5 330.5zM883 1610q156 39 280 145q-4 8 -8 25q41 29 125 28q43 0 57 -2q14 -117 38 -175t69 -87q-4 -2 -19 -2q-104 0 -202 115q-123 -92 -230 -92q-68 0 -110 45z" />
<glyph unicode="&#xdc;" horiz-adv-x="1427" d="M330 270q0 254 104.5 618.5t245.5 622.5q72 -4 174 -47t139 -86q-178 -238 -287.5 -559t-109.5 -583q0 -160 48 -232t161 -72q127 0 228.5 89.5t193.5 261.5q109 201 162 477t53 549q0 119 -8 176q23 0 94 -16.5t110 -36.5q-20 -324 -112 -661t-236 -568 q-229 -375 -563 -375q-190 0 -293.5 111.5t-103.5 330.5zM1026 1614q0 188 119 194q29 -4 75 -31.5t64 -58.5q0 -2 -28.5 -35.5t-61.5 -71.5t-43 -46q-109 20 -125 49zM1294 1614q0 190 115 194q27 -2 73 -29.5t68 -60.5q0 -6 -58 -76.5t-79 -78.5q-90 12 -119 51z" />
<glyph unicode="&#xe0;" horiz-adv-x="962" d="M170 203q0 147 82 319t205 291t229 125q41 -10 95.5 -66.5t58.5 -95.5q-164 -27 -326 -243t-162 -406q0 -39 29 -49q113 23 326 377q98 163 198 372q43 0 98.5 -25.5t53.5 -45.5q-186 -387 -187 -611q0 -121 54 -149q-59 -37 -133 -37q-111 0 -111 152q0 117 78 319 q-82 -186 -202 -322.5t-216 -152.5q-76 2 -123 71.5t-47 176.5zM655 1260q0 57 38 131.5t81 101.5q86 -141 189.5 -242.5t193.5 -136.5q-47 -39 -113 -39q-63 0 -147 40t-242 145z" />
<glyph unicode="&#xe2;" horiz-adv-x="962" d="M170 203q0 147 82 319t205 291t229 125q41 -10 95.5 -66.5t58.5 -95.5q-164 -27 -326 -243t-162 -406q0 -39 29 -49q113 23 326 377q98 163 198 372q43 0 98.5 -25.5t53.5 -45.5q-186 -387 -187 -611q0 -121 54 -149q-59 -37 -133 -37q-111 0 -111 152q0 117 78 319 q-82 -186 -202 -322.5t-216 -152.5q-76 2 -123 71.5t-47 176.5zM600 1192q166 59 293 209l-6 33q41 29 125 28q43 0 57 -2q14 -186 37.5 -278t69.5 -140q-4 -2 -19 -2q-53 0 -111.5 59.5t-101.5 153.5q-129 -115 -233 -114q-61 0 -111 53z" />
<glyph unicode="&#xe6;" horiz-adv-x="1415" d="M184 242q0 143 61.5 279t147.5 224.5t172 142.5t144 58q39 -10 95 -64.5t62 -97.5q-176 -29 -344 -255t-168 -398q0 -39 37 -39q59 0 161.5 86t205.5 219q35 154 90 283t102 156q41 0 94 -25q170 145 320 145q59 0 99 -23.5t98 -88.5q-12 -233 -159 -372.5t-458 -223.5 q-8 -49 -8 -82q0 -111 78 -143q238 59 397 200q20 -20 31 -39q-104 -111 -222 -181.5t-216 -80.5q-158 29 -213.5 97.5t-55.5 254.5q-231 -311 -393 -311q-80 0 -119 83t-39 196zM969 326q174 63 297 186t143 258q-115 -4 -244 -133t-196 -311z" />
<glyph unicode="&#xe7;" horiz-adv-x="856" d="M209 360q0 231 175 421t390 190q106 0 163.5 -53.5t57.5 -151.5q0 -94 -48 -171t-107 -77q-53 0 -92 55q137 125 137 228q0 59 -47 59q-41 0 -103.5 -40t-118.5 -101q-180 -203 -180 -469q0 -164 74 -199q61 8 160.5 57.5t193.5 118.5q20 -16 21 -41q-63 -80 -165 -151.5 t-173 -89.5q-72 -102 -101 -172q39 20 102.5 36.5t102.5 16.5q18 0 68.5 -42t50.5 -58q0 -41 -172 -190.5t-221 -149.5q-8 0 -25.5 30.5t-17.5 42.5q96 82 146 137.5t104 141.5q-90 -16 -238 -72q-12 6 -16 25q29 88 159 258q-121 31 -200.5 147.5t-79.5 263.5z" />
<glyph unicode="&#xe8;" horiz-adv-x="827" d="M178 233q0 164 87 336t223.5 284t267.5 112q94 -13 176 -117q-14 -240 -140 -368t-407 -240q0 -8 -1 -25.5t-1 -28.5q0 -164 94 -163q68 0 146.5 45t123 87t105.5 107q20 -16 35 -35q-92 -121 -202 -202.5t-208 -104.5q-139 14 -219 101.5t-80 211.5zM401 317 q170 84 276 206t114 257q-115 -16 -228.5 -146t-161.5 -317zM639 1260q0 57 38 131.5t81 101.5q86 -141 189.5 -242.5t193.5 -136.5q-47 -39 -113 -39q-63 0 -147 40t-242 145z" />
<glyph unicode="&#xe9;" horiz-adv-x="827" d="M178 233q0 164 87 336t223.5 284t267.5 112q94 -13 176 -117q-14 -240 -140 -368t-407 -240q0 -8 -1 -25.5t-1 -28.5q0 -164 94 -163q68 0 146.5 45t123 87t105.5 107q20 -16 35 -35q-92 -121 -202 -202.5t-208 -104.5q-139 14 -219 101.5t-80 211.5zM401 317 q170 84 276 206t114 257q-115 -16 -228.5 -146t-161.5 -317zM743 1114q90 35 193.5 136.5t189.5 242.5q43 -27 81 -101.5t38 -131.5q-158 -104 -241.5 -144.5t-147.5 -40.5q-66 0 -113 39z" />
<glyph unicode="&#xea;" horiz-adv-x="827" d="M178 233q0 164 87 336t223.5 284t267.5 112q94 -13 176 -117q-14 -240 -140 -368t-407 -240q0 -8 -1 -25.5t-1 -28.5q0 -164 94 -163q68 0 146.5 45t123 87t105.5 107q20 -16 35 -35q-92 -121 -202 -202.5t-208 -104.5q-139 14 -219 101.5t-80 211.5zM401 317 q170 84 276 206t114 257q-115 -16 -228.5 -146t-161.5 -317zM584 1192q166 59 293 209l-7 33q41 29 125 28q44 0 58 -2q14 -186 37.5 -278t68.5 -140q-4 -2 -18 -2q-53 0 -111.5 59.5t-101.5 153.5q-129 -115 -234 -114q-61 0 -110 53z" />
<glyph unicode="&#xeb;" horiz-adv-x="827" d="M178 233q0 164 87 336t223.5 284t267.5 112q94 -13 176 -117q-14 -240 -140 -368t-407 -240q0 -8 -1 -25.5t-1 -28.5q0 -164 94 -163q68 0 146.5 45t123 87t105.5 107q20 -16 35 -35q-92 -121 -202 -202.5t-208 -104.5q-139 14 -219 101.5t-80 211.5zM401 317 q170 84 276 206t114 257q-115 -16 -228.5 -146t-161.5 -317zM741 1239q0 188 119 195q29 -4 75 -32t64 -59q0 -2 -32.5 -52t-70.5 -106.5t-50 -66.5q-85 35 -105 121zM1010 1194q0 190 114 195q27 -2 73 -30t69 -61q0 -8 -68 -108t-90 -113q-71 27 -98 117z" />
<glyph unicode="&#xee;" horiz-adv-x="616" d="M193 115q0 66 67 385q6 31 16.5 65.5t32 92t57 103.5t78.5 66q39 -6 97.5 -41.5t95.5 -89.5q-82 -96 -127 -197.5t-96 -267.5q-8 -25 -20.5 -63.5t-19.5 -60t-12.5 -49t-5.5 -50.5q0 -70 -12 -69q-14 0 -47 16t-68.5 60.5t-35.5 99.5zM352 1092q166 59 293 208l-6 33 q41 29 125 29q43 0 57 -2q14 -186 38 -278.5t69 -139.5q-4 -2 -19 -2q-53 0 -111.5 59.5t-101.5 153.5q-129 -115 -233 -115q-61 0 -111 54z" />
<glyph unicode="&#xef;" horiz-adv-x="489" d="M199 115q0 66 67 385q6 31 16.5 65.5t32 92t57.5 103.5t79 66q39 -6 97 -41.5t95 -89.5q-82 -96 -127 -197.5t-96 -267.5q-8 -25 -20.5 -63.5t-19.5 -60t-12.5 -49t-5.5 -50.5q0 -70 -12 -69q-14 0 -47 16t-68.5 60.5t-35.5 99.5zM516 1139q0 188 119 194q29 -4 75 -31.5 t64 -58.5q0 -2 -32.5 -52t-70.5 -106.5t-50 -66.5q-85 35 -105 121zM784 1094q0 190 115 194q27 -2 73 -29.5t68 -60.5q0 -8 -67.5 -108.5t-89.5 -112.5q-72 27 -99 117z" />
<glyph unicode="&#xf4;" horiz-adv-x="903" d="M184 260q0 164 94.5 341t239.5 284q113 84 211 84q66 -35 129 -146q6 0 18.5 1t18.5 1q109 0 109 -192q0 -256 -159 -454t-405 -251q-117 12 -186.5 102.5t-69.5 229.5zM379 158q0 -49 16.5 -94.5t36.5 -51.5q184 41 303 219.5t119 415.5q0 96 -27 137 q-155 -45 -282 -211q-70 -94 -118 -213.5t-48 -201.5zM645 1167q166 59 293 209l-6 33q41 29 125 29q43 0 57 -2q14 -186 38 -278.5t69 -139.5q-4 -2 -19 -2q-53 0 -111.5 59.5t-101.5 153.5q-129 -115 -233 -115q-61 0 -111 53z" />
<glyph unicode="&#xf9;" horiz-adv-x="1011" d="M174 119q0 98 16 174q43 182 145.5 387t221.5 291q45 0 100.5 -16.5t81.5 -47.5q-18 -18 -51 -67t-93 -162t-116 -244q-25 -55 -55.5 -162.5t-30.5 -156.5q0 -23 15 -37q29 12 74.5 64.5t133.5 172.5q2 4 36 48.5t48.5 66t41 61t45 75.5t30.5 71q68 186 160 274 q53 0 114.5 -21.5t79.5 -43.5q-29 -68 -105.5 -220.5t-114.5 -260t-38 -203.5q0 -70 22.5 -128.5t22.5 -60.5l-8 -8q-29 0 -88 24.5t-106 55.5q-66 55 -66 166q0 43 10 74q-10 0 -52 -51.5t-95 -123t-68 -87.5q-57 -59 -88 -64q-72 4 -139.5 48t-83.5 112zM676 1260 q0 57 38 131.5t81 101.5q86 -141 189 -242.5t194 -136.5q-47 -39 -113 -39q-63 0 -147 40t-242 145z" />
<glyph unicode="&#xfb;" horiz-adv-x="1011" d="M174 119q0 98 16 174q43 182 145.5 387t221.5 291q45 0 100.5 -16.5t81.5 -47.5q-18 -18 -51 -67t-93 -162t-116 -244q-25 -55 -55.5 -162.5t-30.5 -156.5q0 -23 15 -37q29 12 74.5 64.5t133.5 172.5q2 4 36 48.5t48.5 66t41 61t45 75.5t30.5 71q68 186 160 274 q53 0 114.5 -21.5t79.5 -43.5q-29 -68 -105.5 -220.5t-114.5 -260t-38 -203.5q0 -70 22.5 -128.5t22.5 -60.5l-8 -8q-29 0 -88 24.5t-106 55.5q-66 55 -66 166q0 43 10 74q-10 0 -52 -51.5t-95 -123t-68 -87.5q-57 -59 -88 -64q-72 4 -139.5 48t-83.5 112zM621 1192 q166 59 292 209l-6 33q41 29 125 28q44 0 58 -2q14 -186 37.5 -278t68.5 -140q-4 -2 -18 -2q-53 0 -111.5 59.5t-101.5 153.5q-129 -115 -234 -114q-61 0 -110 53z" />
<glyph unicode="&#xfc;" horiz-adv-x="1011" d="M174 119q0 98 16 174q43 182 145.5 387t221.5 291q45 0 100.5 -16.5t81.5 -47.5q-18 -18 -51 -67t-93 -162t-116 -244q-25 -55 -55.5 -162.5t-30.5 -156.5q0 -23 15 -37q29 12 74.5 64.5t133.5 172.5q2 4 36 48.5t48.5 66t41 61t45 75.5t30.5 71q68 186 160 274 q53 0 114.5 -21.5t79.5 -43.5q-29 -68 -105.5 -220.5t-114.5 -260t-38 -203.5q0 -70 22.5 -128.5t22.5 -60.5l-8 -8q-29 0 -88 24.5t-106 55.5q-66 55 -66 166q0 43 10 74q-10 0 -52 -51.5t-95 -123t-68 -87.5q-57 -59 -88 -64q-72 4 -139.5 48t-83.5 112zM778 1239 q0 188 119 195q29 -4 75 -32t64 -59q0 -2 -32.5 -52t-70.5 -106.5t-50 -66.5q-85 35 -105 121zM1047 1194q0 190 114 195q27 -2 73 -30t69 -61q0 -8 -68 -108t-90 -113q-71 27 -98 117z" />
<glyph unicode="&#xff;" horiz-adv-x="1001" d="M-193 -598q0 25 29 43q47 -43 74 -55.5t72 -12.5q233 0 439 263.5t320 705.5q-215 -340 -346 -387q-72 4 -140.5 48t-84.5 112q0 100 18 174q45 182 147.5 387t219.5 291q123 0 186 -64q-33 -29 -108.5 -154.5t-157.5 -318.5q-25 -63 -55.5 -167.5t-30.5 -151.5 q0 -23 14 -37q92 16 238 229q72 106 181.5 309t164.5 295q53 0 116.5 -21.5t82.5 -43.5q-147 -316 -217 -529q-94 -305 -195.5 -503.5t-249.5 -350.5q-193 -203 -395 -202q-100 0 -195.5 42t-126.5 99zM729 1251q0 188 119 195q29 -4 75 -32t64 -58q0 -2 -32.5 -52.5 t-70.5 -106.5t-50 -67q-85 35 -105 121zM997 1206q0 190 115 195q27 -2 73 -30t68 -60q0 -8 -67.5 -108.5t-89.5 -112.5q-72 26 -99 116z" />
<glyph unicode="&#x152;" horiz-adv-x="2002" d="M276 301q0 254 101.5 534.5t280 480.5t370.5 200q66 0 123 -25q68 -29 133 -78q8 39 16 62q68 -10 179 -11q203 0 445.5 22.5t256.5 22.5q100 0 139 -209q-104 10 -174 11q-164 0 -397 -37q-37 -55 -201 -424q168 22 238 22q68 0 105.5 -36.5t37.5 -102.5q0 -37 -10 -63 q-57 10 -137 10q-61 0 -326 -37q-92 -211 -151.5 -392t-63.5 -245q367 74 690 96q53 -78 54 -163q0 -37 -5 -56q-152 4 -286 4q-233 0 -535 -53q-65 28 -129 105q-186 -111 -366 -111q-188 0 -288 121t-100 352zM522 248q0 -316 209 -316q106 0 250 91q82 172 250 614 q-109 23 -141 106q23 23 204 62q104 279 140 438q-90 10 -127 72q-10 0 -26.5 1t-23.5 1q-180 0 -353 -165t-277.5 -414t-104.5 -490z" />
<glyph unicode="&#x153;" horiz-adv-x="1484" d="M184 260q0 164 94.5 341t239.5 284q113 84 211 84q66 -35 129 -146q6 0 18.5 1t18.5 1q90 0 104 -133q96 119 212 191.5t223 72.5q59 0 99 -23t97 -89q-12 -233 -158.5 -372.5t-457.5 -223.5q-8 -49 -8 -82q0 -111 77 -143q238 59 398 200q20 -20 30 -39 q-104 -111 -222 -181.5t-216 -80.5q-96 20 -165.5 80.5t-92.5 140.5q-154 -166 -375 -215q-117 12 -186.5 102.5t-69.5 229.5zM379 158q0 -49 16.5 -94.5t36.5 -51.5q184 41 303 219.5t119 415.5q0 96 -27 137q-155 -45 -282 -211q-70 -94 -118 -213.5t-48 -201.5zM1038 326 q174 63 297.5 186t143.5 258q-115 -4 -244 -133t-197 -311z" />
<glyph unicode="&#x178;" horiz-adv-x="1255" d="M428 1456q41 16 154.5 33.5t195.5 19.5q0 -150 70 -451.5t115 -350.5q301 332 501 780q113 -12 181 -80q-432 -518 -637 -819q-147 -506 -148 -738q-45 0 -173 31t-142 45q20 37 43.5 90.5t41 97.5t44 121.5t38 113.5t39 126t33.5 107q-119 369 -202.5 582.5 t-153.5 291.5zM1001 1614q0 188 119 194q29 -4 75 -31.5t65 -58.5q0 -2 -29 -35.5t-61.5 -71.5t-43.5 -46q-109 20 -125 49zM1270 1614q0 190 114 194q27 -2 73 -29.5t69 -60.5q0 -6 -58.5 -76.5t-78.5 -78.5q-90 12 -119 51z" />
<glyph unicode="&#x2c6;" horiz-adv-x="657" d="M41 1192q166 59 293 209l-6 33q41 29 125 28q43 0 57 -2q14 -186 37.5 -278t68.5 -140q-4 -2 -18 -2q-53 0 -111.5 59.5t-101.5 153.5q-129 -115 -233 -114q-61 0 -111 53z" />
<glyph unicode="&#x2da;" horiz-adv-x="512" d="M41 1255q0 84 71.5 141.5t153.5 57.5q84 0 144.5 -51t60.5 -123q1 -41 -22 -86q-72 -121 -195 -121q-82 0 -147.5 54.5t-65.5 127.5zM160 1227q0 -102 69 -103q68 0 112 56.5t44 117.5q0 37 -21.5 64t-58.5 27q-47 0 -96 -49.5t-49 -112.5z" />
<glyph unicode="&#x2dc;" horiz-adv-x="755" d="M74 1278q96 -33 188 -33q145 0 350 96q45 -51 70 -184q-172 -61 -315 -61q-121 0 -200 53t-93 129z" />
<glyph unicode="&#x2000;" horiz-adv-x="904" />
<glyph unicode="&#x2001;" horiz-adv-x="1808" />
<glyph unicode="&#x2002;" horiz-adv-x="904" />
<glyph unicode="&#x2003;" horiz-adv-x="1808" />
<glyph unicode="&#x2004;" horiz-adv-x="602" />
<glyph unicode="&#x2005;" horiz-adv-x="452" />
<glyph unicode="&#x2006;" horiz-adv-x="301" />
<glyph unicode="&#x2007;" horiz-adv-x="301" />
<glyph unicode="&#x2008;" horiz-adv-x="226" />
<glyph unicode="&#x2009;" horiz-adv-x="361" />
<glyph unicode="&#x200a;" horiz-adv-x="100" />
<glyph unicode="&#x2010;" horiz-adv-x="1077" d="M279 516q0 18 12 62q45 -8 145 -9q164 0 360.5 20.5t209.5 20.5q39 0 68.5 -48t43.5 -134q-84 10 -141 10q-127 0 -306 -28.5t-253 -28.5q-63 0 -101 36t-38 99z" />
<glyph unicode="&#x2011;" horiz-adv-x="1077" d="M279 516q0 18 12 62q45 -8 145 -9q164 0 360.5 20.5t209.5 20.5q39 0 68.5 -48t43.5 -134q-84 10 -141 10q-127 0 -306 -28.5t-253 -28.5q-63 0 -101 36t-38 99z" />
<glyph unicode="&#x2012;" horiz-adv-x="1077" d="M279 516q0 18 12 62q45 -8 145 -9q164 0 360.5 20.5t209.5 20.5q39 0 68.5 -48t43.5 -134q-84 10 -141 10q-127 0 -306 -28.5t-253 -28.5q-63 0 -101 36t-38 99z" />
<glyph unicode="&#x2013;" horiz-adv-x="1210" d="M276 516q0 12 15 64q63 -10 168 -11q190 0 418.5 20.5t242.5 20.5q45 0 80 -48t51 -134q-100 10 -164 10q-147 0 -356 -28.5t-293 -28.5q-74 0 -118 36t-44 99z" />
<glyph unicode="&#x2014;" horiz-adv-x="1277" d="M279 516q0 12 14 64q72 -10 180 -11q203 0 448.5 20.5t258.5 20.5q49 0 86 -48t53 -134q-104 10 -174 10q-158 0 -380 -28.5t-314 -28.5q-78 0 -125 36t-47 99z" />
<glyph unicode="&#x2018;" horiz-adv-x="464" d="M465 1223q78 342 342 481q33 -29 33 -78q-96 -164 -97 -369q0 -82 13 -180q-104 6 -191.5 50t-99.5 96z" />
<glyph unicode="&#x2019;" horiz-adv-x="399" d="M459 1155q96 164 96 369q0 82 -12 180q104 -6 191 -50t100 -95q-78 -343 -342 -482q-33 29 -33 78z" />
<glyph unicode="&#x201a;" horiz-adv-x="491" d="M2 -268q190 164 191 342q0 106 -25 207q104 -6 192.5 -50.5t98.5 -95.5q-96 -340 -424 -481q-33 29 -33 78z" />
<glyph unicode="&#x201c;" horiz-adv-x="866" d="M459 1225q96 340 424 481q33 -29 32 -78q-190 -164 -190 -342q0 -106 25 -207q-104 6 -192.5 50.5t-98.5 95.5zM868 1225q96 340 424 481q33 -29 33 -78q-190 -164 -190 -342q0 -106 24 -207q-104 6 -192 50.5t-99 95.5z" />
<glyph unicode="&#x201d;" horiz-adv-x="843" d="M432 1157q190 164 191 342q0 106 -25 207q104 -6 192.5 -50t98.5 -95q-96 -341 -424 -482q-33 29 -33 78zM842 1157q190 164 190 342q0 106 -24 207q104 -6 192 -50t98 -95q-96 -341 -424 -482q-33 29 -32 78z" />
<glyph unicode="&#x201e;" horiz-adv-x="901" d="M2 -268q190 164 191 342q0 106 -25 207q104 -6 192.5 -50.5t98.5 -95.5q-96 -340 -424 -481q-33 29 -33 78zM412 -268q190 164 190 342q0 106 -24 207q104 -6 192 -50.5t98 -95.5q-96 -340 -424 -481q-33 29 -32 78z" />
<glyph unicode="&#x2026;" horiz-adv-x="1443" d="M141 2q0 23 8.5 66t16.5 76.5t20.5 77.5t14.5 52q51 0 142 -48t128 -103q-33 -78 -104.5 -139.5t-110.5 -61.5q-33 4 -69.5 28.5t-45.5 51.5zM616 2q0 23 8.5 66t16.5 76.5t20.5 77.5t14.5 52q51 0 142 -48t128 -103q-33 -78 -104.5 -139.5t-110.5 -61.5 q-33 4 -69.5 28.5t-45.5 51.5zM1092 2q0 23 8 66t16 76.5t20.5 77.5t14.5 52q51 0 142 -48t128 -103q-33 -78 -104.5 -139.5t-110.5 -61.5q-33 4 -69.5 28.5t-44.5 51.5z" />
<glyph unicode="&#x202f;" horiz-adv-x="361" />
<glyph unicode="&#x2039;" horiz-adv-x="1155" d="M236 569q18 20 63 40t86 31t111.5 28.5t101.5 25.5q143 41 254 96.5t315 182.5q55 -25 105.5 -88.5t50.5 -106.5q0 -51 -63 -129q-14 27 -45 27t-103 -17q-104 -25 -373.5 -114.5t-285.5 -95.5q18 -35 57 -64t143 -84q94 -49 285 -111q10 -4 42 -12t36 -10 q-2 -16 -19.5 -36t-33.5 -26q-176 41 -292 79t-229 104q-104 61 -161 149q-43 68 -45 131z" />
<glyph unicode="&#x203a;" horiz-adv-x="1153" d="M199 193q0 90 170 145q367 123 659 211q-18 35 -57 63.5t-144 83.5q-242 129 -485 133q2 18 19.5 39t33.5 27q117 0 238 -29.5t198.5 -62.5t206.5 -94q199 -119 207 -281q-18 -20 -63 -39.5t-86 -31t-112 -29t-101 -25.5q-143 -41 -254 -96t-316 -182q-115 92 -114 168z " />
<glyph unicode="&#x205f;" horiz-adv-x="452" />
<glyph unicode="&#x20ac;" horiz-adv-x="1488" d="M260 504q0 33 8 59q90 -12 146 -12h98q8 74 33 166h-51q-68 0 -102 32.5t-34 88.5q0 33 9 59q90 -12 145 -12h92q119 276 340 451t471 175q139 0 219 -59t80 -166q0 -80 -44 -170t-114 -147q-53 8 -92 48t-49 93q156 125 156 242q0 90 -113 90q-92 0 -197.5 -73 t-189.5 -193q-90 -127 -153 -267q152 16 163 17q86 0 113 -160q-84 10 -141 10q-76 0 -195 -12q-27 -76 -49 -191q121 18 174 19q86 0 113 -160q-84 10 -142 10q-80 0 -166 -10q-2 -31 -2 -94q0 -150 46.5 -243t125.5 -109q186 43 519 352q20 -20 24 -43 q-117 -158 -249 -282t-234 -173q-250 4 -382 143.5t-134 405.5q-55 -6 -107 -6q-68 0 -101.5 33t-33.5 88z" />
<glyph unicode="&#x2122;" horiz-adv-x="1206" d="M563 1389q0 3 12 36q27 -12 70 -12q47 0 141.5 8.5t100.5 8.5q51 0 65 -80q-41 4 -75 4q-47 0 -66 -2q-102 -201 -135 -437q-68 9 -98 62q0 2 42 116.5t80 241.5q-24 -2 -69 -2q-31 0 -49.5 15.5t-18.5 40.5zM829 969q0 45 113 234.5t174 226.5q20 0 61.5 -19.5 t45.5 -30.5q-41 -80 -64 -202q102 195 182 252q20 0 63.5 -19.5t47.5 -30.5q-78 -139 -78 -456q-27 0 -63.5 10t-44.5 22q0 158 71 390q-51 -55 -115.5 -194.5t-76.5 -227.5q-92 0 -109 34q2 66 39 214.5t41 168.5q-61 -86 -128.5 -216t-74.5 -210q-84 25 -84 54z" />
<glyph unicode="&#xe000;" horiz-adv-x="975" d="M0 975h975v-975h-975v975z" />
</font>
</defs>
</svg>
