<?xml version="1.0" standalone="no"?>
<!DOCTYPE svg PUBLIC "-//W3C//DTD SVG 1.1//EN" "http://www.w3.org/Graphics/SVG/1.1/DTD/svg11.dtd" >
<svg xmlns="http://www.w3.org/2000/svg">
<metadata>
This is a custom SVG webfont generated by Font Squirrel.
Copyright   : Copyright c 2011 by Jovanny Lemonad All rights reserved
Designer    : Jovanny Lemonad
Foundry     : Jovanny Lemonad
Foundry URL : httpwwwjovannyru
</metadata>
<defs>
<font id="NixieOneRegular" horiz-adv-x="1212" >
<font-face units-per-em="2048" ascent="1638" descent="-410" />
<missing-glyph horiz-adv-x="573" />
<glyph unicode=" "  horiz-adv-x="573" />
<glyph unicode="&#x09;" horiz-adv-x="573" />
<glyph unicode="&#xa0;" horiz-adv-x="573" />
<glyph unicode="!" horiz-adv-x="548" d="M172 82q0 47 27.5 74.5t74.5 27.5t75 -27.5t28 -74.5t-27.5 -74.5t-75.5 -27.5q-47 0 -74.5 27.5t-27.5 74.5zM244 338v1065q0 31 30 31q31 0 31 -31v-1065q0 -31 -31 -31q-30 0 -30 31z" />
<glyph unicode="&#x22;" horiz-adv-x="643" d="M158 973v430q0 31 30 31q31 0 31 -31v-430q0 -31 -31 -31q-30 0 -30 31zM424 973v430q0 31 31 31t30 -31v-430q0 -31 -30 -31q-31 0 -31 31z" />
<glyph unicode="#" horiz-adv-x="1556" d="M74 422q0 31 30 31h299l134 528h-293q-31 0 -31 31t31 30h307l92 367q8 29 37 23q31 -6 22 -37l-88 -353h490l92 367q8 29 37 23q31 -6 22 -37l-88 -353h285q31 0 31 -30q0 -31 -31 -31h-301l-131 -528h293q31 0 30 -31q0 -31 -30 -31h-309l-91 -366q-8 -29 -36 -23 q-31 6 -23 37l88 352h-491l-91 -366q-8 -29 -36 -23q-31 6 -23 37l88 352h-285q-30 0 -30 31zM467 453h489l134 528h-492z" />
<glyph unicode="$" horiz-adv-x="1296" d="M92 225q-23 20 0 43q20 20 43 0q76 -100 191.5 -158.5t277.5 -68.5v680q-92 18 -179 42.5t-153.5 66.5t-107.5 105.5t-41 160.5q0 68 30.5 130t90 111t149.5 81t211 36v113q0 31 31 30q31 0 31 -30v-115q145 -6 263 -73.5t199 -170.5q20 -23 0 -43q-23 -23 -43 0 q-78 104 -190.5 161.5t-228.5 64.5v-617q100 -18 197.5 -41.5t174 -65.5t123.5 -107.5t47 -170.5q0 -80 -34.5 -154.5t-102 -131t-169 -90t-236.5 -33.5v-113q0 -31 -31 -31t-31 31v115q-188 10 -311 76.5t-201 166.5zM184 1096q0 -78 34 -129.5t92.5 -87t134 -57 t159.5 -36.5v607q-109 -4 -187.5 -30t-129.5 -67t-77 -93t-26 -107zM666 41q119 0 209 28.5t150 77t91 110.5t31 132q0 80 -41 134.5t-108.5 89t-153.5 57t-178 39.5v-668z" />
<glyph unicode="%" horiz-adv-x="1605" d="M76 1106q0 74 25.5 137.5t70.5 110.5t106.5 73.5t135.5 26.5t135 -26.5t106 -73.5t71 -110.5t26 -137.5t-26 -137.5t-71 -110.5t-106.5 -73.5t-134.5 -26.5q-74 0 -135.5 26.5t-106.5 73.5t-70.5 110.5t-25.5 137.5zM137 1106q0 -61 21.5 -113.5t59.5 -91.5t88 -60.5 t108 -21.5q57 0 107 21.5t88 60.5t59.5 91t21.5 114q0 61 -21.5 113.5t-59.5 91.5t-88 60.5t-107 21.5t-107.5 -21.5t-88.5 -60.5t-59.5 -91.5t-21.5 -113.5zM332 47l887 1370q10 14 19 15.5t22 -5.5q29 -18 8 -41l-885 -1372q-16 -23 -41 -10q-28 14 -10 43zM854 328 q0 74 25.5 137t70.5 110.5t106.5 74t135.5 26.5t135.5 -26.5t106.5 -74t70.5 -111t25.5 -136.5q0 -74 -25.5 -137.5t-70.5 -110.5t-106.5 -73.5t-135.5 -26.5t-135.5 26.5t-106.5 73.5t-70.5 110.5t-25.5 137.5zM915 328q0 -61 21.5 -113.5t59.5 -91.5t88.5 -60.5 t107.5 -21.5t107.5 21.5t88 60.5t59 91t21.5 114q0 61 -21.5 113.5t-59 91t-88 60t-107.5 21.5t-107.5 -21.5t-88.5 -60t-59.5 -91t-21.5 -113.5z" />
<glyph unicode="&#x26;" horiz-adv-x="1431" d="M92 348q0 160 107.5 261.5t294.5 146.5q16 4 13 18t-11 25l-45 55q-39 47 -62.5 86t-37 74t-18.5 66.5t-5 66.5q0 139 99 223t269 84q88 0 162 -25.5t126 -74.5t82 -120t30 -159q0 -31 -31 -31t-31 31q0 74 -25.5 132.5t-70.5 100.5t-106.5 63.5t-135.5 21.5t-130 -19.5 t-96 -53.5t-60.5 -79t-20.5 -94q0 -39 12.5 -77t31 -71.5t41 -64.5t36.5 -53l469 -533q18 -23 33 0l241 365q20 25 43 6q25 -18 7 -43l-248 -371q-10 -14 -8 -23.5t12 -21.5l147 -168q10 -12 22.5 -21.5t28.5 -9.5h136q31 0 30 -30q0 -31 -30 -31h-164q-16 0 -29.5 9 t-23.5 22l-154 174q-20 20 -37 0q-39 -49 -89 -94t-111.5 -79t-135.5 -53.5t-157 -19.5q-84 0 -158 27.5t-127 79t-84 123t-31 159.5zM154 348q0 -74 25.5 -134t70.5 -103t106.5 -67t135.5 -24q154 0 263 67t185 161q23 25 2 47l-356 401q-10 12 -22.5 13.5t-28.5 -2.5 q-182 -49 -281.5 -136.5t-99.5 -222.5z" />
<glyph unicode="'" horiz-adv-x="376" d="M158 973v430q0 31 30 31q31 0 31 -31v-430q0 -31 -31 -31q-30 0 -30 31z" />
<glyph unicode="(" horiz-adv-x="575" d="M156 532v205q0 137 21.5 263t58 233.5t85 196t101.5 151.5q23 25 45 8q25 -23 6 -41q-49 -59 -96 -141t-82 -184.5t-56.5 -225.5t-21.5 -260v-205q0 -139 21.5 -260.5t56.5 -224t82 -185.5t96 -141q18 -18 -6 -40q-23 -16 -45 8q-53 63 -101.5 151t-85 195.5t-58 232.5 t-21.5 264z" />
<glyph unicode=")" horiz-adv-x="575" d="M102 -279q49 57 96.5 140.5t82 186t56 224t21.5 260.5v205q0 137 -21.5 260t-56 225.5t-81.5 184.5t-97 141q-18 18 7 41q23 16 45 -8q53 -63 101 -151.5t85 -196t58.5 -233.5t21.5 -263v-205q0 -139 -21.5 -264t-58.5 -232.5t-85 -195.5t-101 -151q-23 -25 -45 -8 q-25 22 -7 40z" />
<glyph unicode="*" horiz-adv-x="917" d="M143 920q-16 27 13 43l219 124q10 4 10 13.5t-10 15.5l-219 125q-29 14 -13 43q14 27 43 10l209 -123q33 -18 33 17v215q0 31 31 31t30 -31v-215q0 -35 33 -17l209 123q29 16 43 -10q14 -29 -12 -43l-219 -125q-10 -6 -10.5 -15t10.5 -14l219 -124q27 -16 12 -43 q-14 -27 -43 -11l-209 121q-33 18 -33 -16v-205q0 -31 -30 -31q-31 0 -31 31v205q0 35 -33 16l-209 -121q-29 -16 -43 11z" />
<glyph unicode="+" horiz-adv-x="1026" d="M82 655q0 31 31 31h327q31 0 31 31v338q0 31 31 30q31 0 30 -30v-338q0 -31 31 -31h348q31 0 31 -31t-31 -30h-348q-31 0 -31 -31v-338q0 -31 -30 -31q-31 0 -31 31v338q0 31 -31 31h-327q-31 -1 -31 30z" />
<glyph unicode="," horiz-adv-x="495" d="M145 82q0 47 28 74.5t75 27.5t74.5 -30.5t27.5 -92.5v-30q0 -109 -42 -182.5t-111 -104.5q-29 -16 -45 8q-16 27 12 39q59 27 92 77t33 112v16q-8 -4 -18.5 -10t-32.5 -6q-39 0 -66 27.5t-27 74.5z" />
<glyph unicode="-" horiz-adv-x="1171" d="M156 655q0 31 30 31h799q31 0 31 -31t-31 -30h-799q-30 -1 -30 30z" />
<glyph unicode="." horiz-adv-x="495" d="M145 82q0 47 28 74.5t75 27.5t74.5 -27.5t27.5 -74.5t-27.5 -74.5t-74.5 -27.5t-75 27.5t-28 74.5z" />
<glyph unicode="/" horiz-adv-x="1060" d="M61 47l887 1370q10 14 19.5 15.5t21.5 -5.5q29 -18 8 -41l-884 -1372q-16 -23 -41 -10q-29 14 -11 43z" />
<glyph unicode="0" horiz-adv-x="1339" d="M127 717q0 180 43 318.5t116.5 231.5t173 140t210.5 47t210 -47t172.5 -140t116.5 -231.5t43 -318.5t-43 -318.5t-116.5 -231.5t-173 -140t-209.5 -47q-111 0 -210.5 47t-173 140t-116.5 231.5t-43 318.5zM188 717q0 -170 39 -296t105.5 -211t153.5 -127t184 -42 q96 0 183 42t153.5 127t105.5 211t39 296q0 168 -39 295t-105.5 212t-153.5 127t-183 42t-183.5 -42t-154 -127t-105.5 -212t-39 -295z" />
<glyph unicode="1" horiz-adv-x="708" d="M63 1139q-20 27 5 45l262 219q10 8 24.5 19.5t30.5 11.5q41 0 41 -31v-1311q0 -31 31 -31h143q31 0 31 -30q0 -31 -31 -31h-410q-31 0 -30 31q0 31 30 30h144q31 0 31 31v1239q0 8 -8.5 9t-20.5 -9l-227 -194q-23 -21 -46 2z" />
<glyph unicode="2" horiz-adv-x="1218" d="M123 31v112q0 111 66.5 193t167 149.5t217 127t217 125t167 144.5t66.5 183q0 61 -26.5 119.5t-79 104.5t-128 75t-176.5 29q-123 0 -243.5 -58.5t-204.5 -169.5q-23 -23 -43 0q-23 20 0 43q86 109 211 177.5t280 68.5q115 0 203 -34t147.5 -88t90 -123.5t30.5 -143.5 q0 -117 -66.5 -205t-166.5 -158.5t-217 -131t-217.5 -124t-167 -136t-66.5 -167.5v-51q0 -31 31 -31h778q31 0 31 31v154q0 31 31 30q31 0 30 -30v-215q0 -31 -30 -31h-901q-31 0 -31 31z" />
<glyph unicode="3" horiz-adv-x="1230" d="M106 246q-20 29 5 47q25 20 39 -4q37 -66 90 -113t116.5 -76.5t130 -44t127.5 -14.5q201 0 315.5 93t114.5 255q0 154 -97 241t-251 87h-215q-31 0 -30 31q0 31 30 30h174q84 0 149.5 23.5t109.5 63.5t67 94.5t23 115.5q0 66 -26 123t-77 100t-127 69t-176 26 q-254 0 -408 -207q-23 -23 -43 0q-23 20 0 43q78 100 185.5 162.5t265.5 62.5q115 0 203 -30.5t146.5 -82t88 -121t29.5 -145.5q0 -117 -62.5 -200.5t-193.5 -122.5q74 -12 129 -44t92 -80t56.5 -108.5t19.5 -130.5q0 -92 -34 -168t-97.5 -129t-154.5 -82.5t-206 -29.5 q-78 0 -152.5 17t-141 51t-122 83t-92.5 115z" />
<glyph unicode="4" horiz-adv-x="1183" d="M32 361.5q-9 13.5 3 33.5q86 129 155.5 235.5t119.5 224.5t78 262.5t28 346.5q0 31 30 31q31 0 31 -31q0 -188 -25.5 -332.5t-70.5 -263t-108.5 -221t-137.5 -207.5q-6 -14 0 -22t23 -8h678q31 0 30 30v586q0 31 31 31t31 -31v-586q0 -31 30 -30h164q31 0 31 -31t-31 -31 h-164q-31 0 -30 -31v-307q0 -31 -31 -30q-31 0 -31 30v307q0 31 -30 31h-779q-16 0 -25 13.5z" />
<glyph unicode="5" horiz-adv-x="1171" d="M143 768v635q0 31 31 31h799q31 0 31 -31t-31 -31h-737q-31 0 -31 -31v-481q0 -16 7 -24.5t24 0.5q31 16 71.5 31.5t86.5 27.5t93.5 19.5t92.5 7.5q123 0 216 -33t154.5 -92.5t93 -142.5t31.5 -183q0 -135 -68.5 -234.5t-188.5 -166t-282.5 -99t-351.5 -32.5 q-31 0 -30 30q0 31 30 31q162 0 311.5 27.5t264 85t184.5 146.5t70 212q0 176 -109.5 282.5t-324.5 106.5q-104 0 -205 -31.5t-170 -78.5q-10 -4 -16.5 -8.5t-16.5 -4.5q-29 0 -29 31z" />
<glyph unicode="6" horiz-adv-x="1222" d="M117 614q0 96 20.5 200t63.5 202t108.5 185t153.5 152.5t200.5 103.5t251.5 38q31 0 31 -31t-31 -30q-162 0 -297 -61.5t-233 -171t-152.5 -260t-54.5 -327.5q0 -279 122 -426t339 -147q100 0 181 30.5t138.5 87t89 133.5t31.5 169q0 201 -111.5 310.5t-328.5 109.5 q-27 0 -59.5 -3.5t-66.5 -9.5t-64.5 -14t-53.5 -16q-29 -12 -41 18q-10 29 19 39q53 20 124.5 33.5t141.5 13.5q240 0 371 -129t131 -352q0 -104 -37 -192.5t-102.5 -153t-158.5 -100t-204 -35.5q-119 0 -215 46t-165 129t-105.5 200.5t-36.5 258.5z" />
<glyph unicode="7" horiz-adv-x="911" d="M-2 1403q0 31 31 31h860q16 0 25.5 -13.5t-3.5 -34.5q-92 -152 -186 -314.5t-169 -333.5t-122 -349t-47 -358q0 -31 -31 -31t-30 31q0 168 45 344t116.5 346t158.5 327.5t173 292.5q6 14 0 22.5t-22 8.5h-768q-31 0 -31 31z" />
<glyph unicode="8" horiz-adv-x="1277" d="M117 348q0 88 31.5 148.5t86 102.5t124 71.5t147.5 58.5q10 4 10 10t-10 11q-66 27 -125 56.5t-104.5 70.5t-72 96t-26.5 133q0 74 31 137.5t89 110.5t144 73.5t197 26.5t197 -26.5t144 -73.5t89 -110.5t31 -137.5q0 -78 -26.5 -133t-72 -96t-104.5 -71t-125 -56 q-10 -4 -10 -10.5t10 -10.5q76 -29 146.5 -58.5t125 -71.5t86 -102.5t31.5 -148.5q0 -80 -40 -147.5t-109.5 -116.5t-165.5 -76.5t-207 -27.5t-207 27.5t-165.5 76.5t-109.5 116.5t-40 147.5zM178 348q0 -70 35 -126t96.5 -96t145.5 -62.5t184 -22.5t184 22.5t145.5 62.5 t96.5 96.5t35 125.5q0 82 -40 138.5t-104.5 96.5t-147.5 67l-169 57l-169 -57q-83 -28 -147.5 -67.5t-104.5 -96t-40 -138.5zM240 1106q0 -74 32.5 -126t88 -90t128 -65.5t150.5 -52.5q78 25 149.5 52.5t127 65.5t89 90t33.5 126q0 123 -99 205t-300 82t-300 -82t-99 -205z " />
<glyph unicode="9" horiz-adv-x="1222" d="M82 973q0 104 37 192t102.5 152.5t158.5 100.5t204 36q119 0 215 -46t164.5 -129t105.5 -200.5t37 -259.5q0 -98 -20.5 -200.5t-63.5 -201t-108.5 -185.5t-153.5 -152.5t-202 -103t-251 -37.5q-31 0 -31 30q0 31 31 31q162 0 297 61.5t233.5 171t152.5 260t54 326.5 q0 279 -121.5 426.5t-338.5 147.5q-100 0 -181 -31t-138.5 -87t-89.5 -133t-32 -169q0 -201 112 -310.5t329 -109.5q27 0 59.5 3t66 9t64.5 14.5t53 16.5q29 12 41 -18q10 -29 -18 -39q-53 -20 -125 -33.5t-141 -13.5q-240 0 -371 129t-131 352z" />
<glyph unicode=":" horiz-adv-x="516" d="M156 82q0 47 27.5 74.5t74.5 27.5t74.5 -27.5t27.5 -74.5t-27.5 -74.5t-74.5 -27.5t-74.5 27.5t-27.5 74.5zM156 942q0 47 27.5 74.5t74.5 27.5t74.5 -27.5t27.5 -74.5t-27.5 -74.5t-74.5 -27.5t-74.5 27.5t-27.5 74.5z" />
<glyph unicode=";" horiz-adv-x="516" d="M156 82q0 47 27.5 74.5t74.5 27.5t74.5 -30.5t27.5 -92.5v-30q0 -109 -42 -182.5t-111 -104.5q-29 -16 -45 8q-16 27 12 39q59 27 92 77t33 112v16q-8 -4 -18.5 -10t-32.5 -6q-39 0 -65.5 27.5t-26.5 74.5zM156 942q0 47 27.5 74.5t74.5 27.5t74.5 -27.5t27.5 -74.5 t-27.5 -74.5t-74.5 -27.5t-74.5 27.5t-27.5 74.5z" />
<glyph unicode="&#x3c;" horiz-adv-x="1021" d="M68 510.5q0 21.5 20 34.5l770 442q29 18 43 -10q16 -29 -10 -43l-703 -406q-29 -18 0 -36l703 -404q27 -18 10 -43q-14 -29 -43 -10l-768 442q-22 12 -22 33.5z" />
<glyph unicode="=" horiz-adv-x="1187" d="M164 451q0 31 31 30h798q31 0 31 -30q0 -31 -31 -31h-798q-31 0 -31 31zM164 860q0 31 31 31h798q31 0 31 -31t-31 -31h-798q-31 0 -31 31z" />
<glyph unicode="&#x3e;" horiz-adv-x="1021" d="M121 45q-16 25 10 43l703 404q29 18 0 36l-703 406q-27 14 -10 43q14 29 43 10l770 -442q20 -12 20 -34t-22 -34l-768 -442q-29 -19 -43 10z" />
<glyph unicode="?" horiz-adv-x="1110" d="M72 1044q0 92 31.5 168t92 129.5t148.5 83t199 29.5q115 0 203 -34t147 -88t90 -123.5t31 -143.5q0 -98 -33 -166t-82 -121t-105.5 -96t-105.5 -91t-82 -108.5t-33 -144.5q0 -31 -30 -31q-31 0 -31 31q0 94 33 160.5t82 117t105 93.5t105.5 92t82 111.5t32.5 152.5 q0 61 -26.5 119.5t-78.5 104.5t-128 75t-176 29q-193 0 -301.5 -93.5t-108.5 -255.5q0 -31 -31 -30q-30 -1 -30 30zM440 82q0 47 28 74.5t75 27.5t74.5 -27.5t27.5 -74.5t-27.5 -74.5t-74.5 -27.5t-75 27.5t-28 74.5z" />
<glyph unicode="@" horiz-adv-x="1888" d="M104 532q0 203 67 373t181.5 292t270 189.5t331.5 67.5t331 -67.5t270.5 -189.5t182 -292t66.5 -373q0 -125 -21.5 -226t-61.5 -174t-95 -112.5t-125 -39.5q-88 0 -142 44t-77 121q-4 16 -10 29.5t-23 -8.5q-18 -29 -46.5 -60.5t-67.5 -60.5t-89.5 -47t-111.5 -18 q-100 0 -183 32.5t-142.5 99t-92.5 166t-33 234.5t36 234.5t95.5 166t137 99t161.5 32.5q45 0 88 -13t80 -35.5t67 -50t52 -56.5q18 -25 -6 -43q-25 -18 -43 6q-39 47 -99.5 89t-138.5 42q-70 0 -135 -27.5t-117.5 -85t-84 -146.5t-31.5 -212t28.5 -212t81 -146.5t124 -85 t155.5 -27.5q86 0 149.5 45t108.5 98q53 63 90 144v665q0 31 31 31t30 -31v-788q0 -78 44.5 -121t113.5 -43q51 0 96 39t77 105.5t50.5 155.5t18.5 191q0 193 -61.5 350.5t-168 271.5t-250 176.5t-309.5 62.5t-309 -62.5t-249.5 -176.5t-168 -271.5t-61.5 -350.5t61.5 -350 t168 -271t249.5 -176.5t309 -62.5q70 0 139.5 8.5t135 30t126 57t109.5 91.5q20 20 43 0q20 -23 0 -43q-100 -109 -240.5 -157t-312.5 -48q-176 0 -331.5 67.5t-270 189.5t-181.5 291.5t-67 372.5z" />
<glyph unicode="A" horiz-adv-x="1482" d="M-20 31q0 31 30 30h133q27 0 41 31l512 1331q10 31 45 31t45 -31l512 -1331q14 -31 41 -31h134q31 0 30 -30q0 -31 -30 -31h-410q-31 0 -31 31t31 30h143q35 0 21 31l-473 1229q-4 12 -12.5 12t-12.5 -12l-260 -676q-6 -14 0 -22.5t23 -8.5h389q31 0 30 -30 q0 -31 -30 -31h-410q-16 0 -29.5 -7t-19.5 -22l-166 -432q-14 -31 20 -31h144q31 0 31 -30q0 -31 -31 -31h-410q-30 0 -30 31z" />
<glyph unicode="B" horiz-adv-x="1333" d="M94 31q0 31 31 30h143q31 0 31 31v1249q0 31 -31 31h-143q-31 0 -31 31t31 31h625q84 0 152.5 -28t116.5 -75t73.5 -113.5t25.5 -142.5q0 -102 -47 -182t-147 -127q147 -29 222 -129t75 -248q0 -178 -101.5 -283.5t-288.5 -105.5h-706q-31 0 -31 31zM360 92q0 -31 31 -31 h440q154 0 241 87.5t87 240.5q0 154 -87 241t-241 87h-337q-31 0 -31 31t31 30h266q66 0 120 23.5t94 63.5t61.5 94.5t21.5 115.5q0 131 -84 214t-223 83h-359q-31 0 -31 -31v-1249z" />
<glyph unicode="C" horiz-adv-x="1454" d="M119 717q0 158 48 293t135 233t210 154.5t272 56.5q76 0 143.5 -18.5t122 -45t95.5 -57t67 -53.5q20 -16 26.5 -6t6.5 26v103q0 31 31 31t31 -31v-389q0 -31 -31 -31t-31 31v143q-57 63 -127 117q-59 45 -144 82t-190 37q-135 0 -245.5 -51.5t-190.5 -141.5t-124 -214 t-44 -269t44 -269t126 -214.5t198 -141.5t257 -51q139 0 262 58.5t207 168.5q20 20 43 0q10 -11 10 -21.5t-10 -21.5q-86 -109 -213 -177t-299 -68q-158 0 -285 56t-216 154.5t-137 233.5t-48 293z" />
<glyph unicode="D" horiz-adv-x="1503" d="M94 31q0 31 31 30h143q31 0 31 31v1249q0 31 -31 31h-143q-31 0 -31 31t31 31h573q158 0 285 -56.5t216 -153t137 -227.5t48 -280q0 -150 -48 -281t-137 -227t-216 -152.5t-285 -56.5h-573q-31 0 -31 31zM360 92q0 -31 31 -31h307q141 0 257 50.5t198 139.5t126 208 t44 258q0 137 -44 257t-126 209t-197.5 139t-257.5 50h-307q-31 0 -31 -31v-1249z" />
<glyph unicode="E" horiz-adv-x="1257" d="M94 31q0 31 31 30h143q31 0 31 31v1249q0 31 -31 31h-143q-31 0 -31 31t31 31h973q31 0 30 -31v-287q0 -31 -30 -31q-31 0 -31 31v225q0 31 -31 31h-645q-31 0 -31 -31v-553q0 -31 31 -30h461q31 0 31 30v103q0 31 30 31q31 0 31 -31v-328q0 -31 -31 -31t-30 31v103 q0 31 -31 30h-461q-31 0 -31 -30v-574q0 -31 31 -31h666q31 0 30 31v225q0 31 31 31t31 -31v-286q0 -31 -31 -31h-993q-31 0 -31 31z" />
<glyph unicode="F" horiz-adv-x="1200" d="M94 31q0 31 31 30h143q31 0 31 31v1249q0 31 -31 31h-143q-31 0 -31 31t31 31h973q31 0 30 -31v-287q0 -31 -30 -31q-31 0 -31 31v225q0 31 -31 31h-645q-31 0 -31 -31v-553q0 -31 31 -30h481q31 0 31 30v103q0 31 31 31t31 -31v-328q0 -31 -31 -31t-31 31v103 q0 31 -31 30h-481q-31 0 -31 -30v-574q0 -31 31 -31h144q31 0 30 -30q0 -31 -30 -31h-410q-31 0 -31 31z" />
<glyph unicode="G" horiz-adv-x="1564" d="M119 717q0 158 48 293t135 233t210 154.5t272 56.5q76 0 143.5 -18.5t122 -45t95.5 -57t67 -53.5q20 -16 26.5 -6t6.5 26v103q0 31 31 31t31 -31v-389q0 -31 -31 -31t-31 31v143q-57 63 -127 117q-59 45 -144 82t-190 37q-135 0 -245.5 -51.5t-190.5 -141.5t-124 -214 t-44 -269t44 -269t124 -214.5t190.5 -141.5t245.5 -51q104 0 189.5 36t144.5 81q70 53 127 118v390q0 31 -31 30h-143q-31 0 -31 31t31 31h410q31 0 30 -31q0 -31 -30 -31h-144q-31 0 -30 -30v-635q0 -31 -31 -31t-31 31v102q0 16 -6 26.5t-27 -5.5q-27 -23 -67.5 -53.5 t-95 -57.5t-122 -45t-143.5 -18q-150 0 -272.5 56t-209.5 154.5t-135 233.5t-48 293z" />
<glyph unicode="H" horiz-adv-x="1601" d="M94 31q0 31 31 30h143q31 0 31 31v1249q0 31 -31 31h-143q-31 0 -31 31t31 31h410q31 0 30 -31q0 -31 -30 -31h-144q-31 0 -31 -31v-553q0 -31 31 -30h717q31 0 31 -31t-31 -31h-717q-31 0 -31 -30v-574q0 -31 31 -31h144q31 0 30 -30q0 -31 -30 -31h-410q-31 0 -31 31z M1036 31q0 31 31 30h143q31 0 31 31v1249q0 31 -31 31h-143q-31 0 -31 31t31 31h410q31 0 30 -31q0 -31 -30 -31h-144q-31 0 -30 -31v-1249q0 -31 30 -31h144q31 0 30 -30q0 -31 -30 -31h-410q-31 0 -31 31z" />
<glyph unicode="I" horiz-adv-x="659" d="M94 31q0 31 31 30h143q31 0 31 31v1249q0 31 -31 31h-143q-31 0 -31 31t31 31h410q31 0 30 -31q0 -31 -30 -31h-144q-31 0 -31 -31v-1249q0 -31 31 -31h144q31 0 30 -30q0 -31 -30 -31h-410q-31 0 -31 31z" />
<glyph unicode="J" horiz-adv-x="1054" d="M70 338q0 31 30 31q31 0 31 -31q0 -139 78 -218t209 -79q66 0 122 21.5t97 63.5t64.5 105.5t23.5 147.5v962q0 31 -31 31h-491q-31 0 -31 31t31 31h758q31 0 30 -31q0 -31 -30 -31h-144q-31 0 -31 -31v-962q0 -96 -27.5 -171t-76.5 -125t-116.5 -76.5t-147.5 -26.5 q-162 0 -255 98t-93 260z" />
<glyph unicode="K" horiz-adv-x="1425" d="M94 31q0 31 31 30h143q31 0 31 31v1249q0 31 -31 31h-143q-31 0 -31 31t31 31h410q31 0 30 -31q0 -31 -30 -31h-144q-31 0 -31 -31v-757l697 757q10 10 8 20.5t-18 10.5h-154q-31 0 -31 31t31 31h440q31 0 31 -31t-31 -31h-131q-16 0 -29.5 -10t-23.5 -21l-473 -514 l534 -735q10 -12 22.5 -21.5t29.5 -9.5h133q31 0 30 -30q0 -31 -30 -31h-430q-31 0 -31 31t31 30h153q16 0 18.5 9.5t-8.5 21.5l-497 686l-271 -295v-391q0 -31 31 -31h144q31 0 30 -30q0 -31 -30 -31h-410q-31 0 -31 31z" />
<glyph unicode="L" horiz-adv-x="1183" d="M94 31q0 31 31 30h143q31 0 31 31v1249q0 31 -31 31h-143q-31 0 -31 31t31 31h205q31 0 30 -31v-1311q0 -31 31 -31h656q31 0 30 31v154q0 31 31 30q31 0 31 -30v-215q0 -31 -31 -31h-983q-31 0 -31 31z" />
<glyph unicode="M" horiz-adv-x="1990" d="M94 31q0 31 31 30h143q31 0 31 31v1249q0 31 -31 31h-143q-31 0 -31 31t31 31h225q23 0 34 -8.5t17 -22.5l574 -1270q20 -43 41 0l573 1270q6 14 17.5 22.5t33.5 8.5h226q31 0 30 -31q0 -31 -30 -31h-144q-31 0 -30 -31v-1249q0 -31 30 -31h144q31 0 30 -30 q0 -31 -30 -31h-410q-31 0 -31 31t31 30h143q31 0 31 31v1198q0 16 -6 17.5t-10 -7.5l-574 -1269q-14 -31 -45 -31t-45 31l-573 1269q-4 8 -10.5 7.5t-6.5 -17.5v-1198q0 -31 31 -31h144q31 0 30 -30q0 -31 -30 -31h-410q-31 0 -31 31z" />
<glyph unicode="N" horiz-adv-x="1607" d="M94 31q0 31 31 30h143q31 0 31 31v1249q0 31 -31 31h-143q-31 0 -31 31t31 31h225q23 0 33 -9.5t18 -21.5l840 -1280q4 -8 12.5 -7t8.5 17v1208q0 31 -31 31h-144q-31 0 -30 31q0 31 30 31h410q31 0 31 -31t-31 -31h-143q-31 0 -31 -31v-1300q0 -41 -41 -41h-10 q-23 0 -33 9t-18 22l-840 1280q-4 8 -12.5 7t-8.5 -18v-1208q0 -31 31 -31h144q31 0 30 -30q0 -31 -30 -31h-410q-31 0 -31 31z" />
<glyph unicode="O" horiz-adv-x="1609" d="M119 717q0 158 48 293t137 233t216 154.5t285 56.5t285 -56.5t216 -154.5t137 -233.5t48 -292.5q0 -158 -48 -293t-137 -233.5t-216 -154.5t-285 -56t-285 56t-216 154.5t-137 233.5t-48 293zM180 717q0 -145 44 -269t126 -214.5t198 -141.5t257 -51t257 51t197.5 141.5 t126 214t44.5 269.5q0 145 -44.5 269t-126 214t-197.5 141.5t-257 51.5t-257 -51.5t-198 -141.5t-126 -214t-44 -269z" />
<glyph unicode="P" horiz-adv-x="1296" d="M94 31q0 31 31 30h143q31 0 31 31v1249q0 31 -31 31h-143q-31 0 -31 31t31 31h686q201 0 305.5 -111t104.5 -319q0 -209 -104.5 -320t-305.5 -111h-297q-31 0 -31 31t31 31h297q170 0 259 91t89 278q0 186 -89 277t-259 91h-420q-31 0 -31 -31v-1249q0 -31 31 -31h144 q31 0 30 -30q0 -31 -30 -31h-410q-31 0 -31 31z" />
<glyph unicode="Q" horiz-adv-x="1611" d="M119 717q0 158 48 293t137 233t216 154.5t285 56.5t285 -56.5t216 -154.5t137 -233.5t48 -292.5q0 -131 -33 -247t-95.5 -208t-152.5 -158.5t-202 -97.5q14 -53 35.5 -91t68.5 -38t74.5 26.5t27.5 96.5q0 31 31 31t31 -31q0 -92 -43 -138t-121 -46q-43 0 -71.5 15t-48 40 t-32 56.5t-20.5 64.5q-66 -12 -135 -12q-158 0 -285 56t-216 154.5t-137 233.5t-48 293zM180 717q0 -127 34 -237.5t96.5 -196.5t151.5 -144.5t200 -83.5q4 86 47 128t116 42q39 0 67 -13t47 -35.5t30.5 -51.5t21.5 -59q100 29 182 89t138.5 145t87.5 190.5t31 226.5 q0 145 -44.5 269t-126 214t-197.5 141.5t-257 51.5t-257 -51.5t-198 -141.5t-126 -214t-44 -269zM723 45q20 -2 39.5 -3t42.5 -1q31 0 61.5 2t59.5 8q-14 47 -36 80t-65 33q-47 0 -73.5 -26.5t-28.5 -92.5z" />
<glyph unicode="R" horiz-adv-x="1409" d="M94 31q0 31 31 30h143q31 0 31 31v1249q0 31 -31 31h-143q-31 0 -31 31t31 31h686q201 0 305.5 -105.5t104.5 -284.5q0 -178 -104.5 -283.5t-305.5 -105.5h-10q-16 0 -23.5 -9t2.5 -21l389 -533q10 -12 22.5 -21.5t29.5 -9.5h133q31 0 30 -30q0 -31 -30 -31h-430 q-31 0 -31 31t31 30h153q16 0 18.5 9.5t-8.5 21.5l-409 563h-164q-31 0 -31 31t31 31h297q170 0 259 87t89 240q0 154 -89 241t-259 87h-420q-31 0 -31 -31v-1249q0 -31 31 -31h144q31 0 30 -30q0 -31 -30 -31h-410q-31 0 -31 31z" />
<glyph unicode="S" horiz-adv-x="1361" d="M113 225q-11 10 -11.5 21t11.5 22q20 20 43 0q86 -111 215 -169t315 -58q127 0 221 28.5t156.5 77t93.5 113t31 129.5q0 86 -46 141.5t-119 90t-166 54t-191.5 37t-191.5 40t-167 65.5t-119 108.5t-45 170.5q0 70 28 134t87 114.5t152.5 80t226.5 29.5q84 0 154.5 -18.5 t127 -45t98.5 -57t68 -53.5q20 -16 26.5 -6t6.5 26v103q0 31 31 31t31 -31v-389q0 -31 -31 -31t-31 31v143q-86 100 -206.5 168t-274.5 68q-117 0 -199 -25t-134 -66.5t-75.5 -97t-23.5 -108.5q0 -86 45 -142.5t118.5 -92.5t167 -55.5t191.5 -36.5t191.5 -39.5t167 -63.5 t118.5 -106.5t45 -170.5q0 -80 -34.5 -154.5t-104.5 -131t-176.5 -90t-247.5 -33.5q-215 0 -352 68t-221 177z" />
<glyph unicode="T" horiz-adv-x="1265" d="M49 1147v256q0 31 31 31h1106q31 0 31 -31v-256q0 -31 -31 -31t-31 31v194q0 31 -31 31h-430q-31 0 -30 -31v-1249q0 -31 30 -31h144q31 0 30 -30q0 -31 -30 -31h-410q-31 0 -31 31t31 30h143q31 0 31 31v1249q0 31 -31 31h-430q-31 0 -30 -31v-194q0 -31 -31 -31t-31 31 z" />
<glyph unicode="U" horiz-adv-x="1589" d="M57 1403q0 31 31 31h410q31 0 30 -31q0 -31 -30 -31h-144q-31 0 -30 -31v-829q0 -109 35.5 -196t99 -148.5t149.5 -94t187 -32.5q100 0 186 32.5t149.5 94t99.5 148.5t36 196v829q0 31 -31 31h-143q-31 0 -31 31t31 31h409q31 0 31 -31t-31 -31h-143q-31 0 -31 -31v-829 q0 -119 -40 -217t-110.5 -168t-169 -108.5t-212.5 -38.5q-115 0 -213.5 38.5t-169 108.5t-110.5 168t-40 217v829q0 31 -31 31h-143q-31 0 -31 31z" />
<glyph unicode="V" horiz-adv-x="1482" d="M-20 1403q0 31 30 31h410q31 0 31 -31t-31 -31h-144q-35 0 -20 -31l473 -1228q4 -12 12.5 -12.5t12.5 12.5l473 1228q14 31 -21 31h-143q-31 0 -31 31t31 31h410q31 0 30 -31q0 -31 -30 -31h-134q-27 0 -41 -31l-512 -1331q-10 -31 -45 -30q-35 0 -45 30l-512 1331 q-14 31 -41 31h-133q-30 0 -30 31z" />
<glyph unicode="W" horiz-adv-x="2074" d="M-18 1403q0 31 30 31h406q31 0 31 -31t-31 -31h-144q-33 0 -20 -31l367 -1183q6 -12 14 -12.5t14 12.5l350 1245q8 31 39 31t39 -31l348 -1245q6 -12 14.5 -12.5t14.5 12.5l367 1183q12 31 -23 31h-143q-31 0 -31 31t31 31h407q31 0 31 -31t-31 -31h-133q-31 0 -41 -31 l-411 -1331q-10 -31 -37 -30q-29 0 -37 30l-350 1250q-6 12 -16.5 12t-16.5 -12l-348 -1250q-8 -31 -37 -30q-29 0 -37 30l-412 1331q-10 31 -41 31h-133q-30 0 -30 31z" />
<glyph unicode="X" horiz-adv-x="1353" d="M14 31q0 31 31 30h123q16 0 29.5 9.5t21.5 21.5l410 621q12 18 0 37l-389 591q-8 12 -21.5 21.5t-30.5 9.5h-122q-31 0 -31 31t31 31h409q31 0 31 -31t-31 -31h-143q-16 0 -22.5 -9t1.5 -22l351 -532q14 -23 28 0l352 532q8 12 2 21.5t-22 9.5h-143q-31 0 -31 31t31 31 h409q31 0 31 -31t-31 -31h-123q-16 0 -29.5 -9t-21.5 -22l-389 -591q-12 -18 0 -37l410 -621q8 -12 21 -21.5t30 -9.5h123q31 0 30 -30q0 -31 -30 -31h-410q-31 0 -31 31t31 30h143q16 0 22.5 9.5t-1.5 21.5l-373 563q-14 20 -28 0l-371 -563q-8 -12 -2 -21.5t22 -9.5h144 q31 0 30 -30q0 -31 -30 -31h-410q-31 0 -31 31z" />
<glyph unicode="Y" horiz-adv-x="1284" d="M-20 1403q0 31 30 31h410q31 0 31 -31t-31 -31h-144q-16 0 -22 -9t2 -22l371 -647q14 -23 28 0l373 647q8 12 2 21.5t-22 9.5h-144q-31 0 -30 31q0 31 30 31h410q31 0 31 -31t-31 -31h-123q-16 0 -29.5 -9t-21.5 -22l-426 -739v-510q0 -31 31 -31h143q31 0 31 -30 q0 -31 -31 -31h-410q-31 0 -30 31q0 31 30 30h144q31 0 30 31v506l-428 743q-8 12 -21 21.5t-30 9.5h-123q-30 0 -30 31z" />
<glyph unicode="Z" horiz-adv-x="1259" d="M102 35q0 12 7.5 21.5t17.5 25.5l920 1257q10 12 6 22.5t-29 10.5h-819q-31 0 -31 -31v-194q0 -31 -31 -31t-30 31v256q0 31 30 31h983q31 0 31 -35q0 -12 -7 -21.5t-17 -25.5l-920 -1258q-10 -12 -6 -22.5t29 -10.5h819q31 0 30 31v195q0 31 31 30q31 0 31 -30v-256 q0 -31 -31 -31h-983q-31 0 -31 35z" />
<glyph unicode="[" horiz-adv-x="593" d="M219 -297v1864q0 31 31 30h266q31 0 31 -30q0 -31 -31 -31h-205q-31 0 -30 -31v-1741q0 -31 30 -30h205q31 0 31 -31t-31 -31h-266q-31 0 -31 31z" />
<glyph unicode="\" horiz-adv-x="1062" d="M63 1386q-20 23 9 41q25 12 41 -10l886 -1370q18 -29 -10 -43q-25 -12 -41 10z" />
<glyph unicode="]" horiz-adv-x="593" d="M47 -297q0 31 31 31h205q31 0 30 30v1741q0 31 -30 31h-205q-31 0 -31 31t31 30h266q31 0 31 -30v-1864q0 -31 -31 -31h-266q-31 0 -31 31z" />
<glyph unicode="^" horiz-adv-x="956" d="M49 954l395 539q12 20 34 21.5t34 -21.5l395 -539q16 -23 -8 -41q-27 -20 -45 9l-356 485q-8 12 -19.5 12t-19.5 -12l-357 -485q-18 -29 -45 -9q-24 18 -8 41z" />
<glyph unicode="_" horiz-adv-x="1449" d="M387 -133q0 31 31 31h614q31 0 31 -31t-31 -31h-614q-31 0 -31 31z" />
<glyph unicode="`" horiz-adv-x="495" d="M131 1423q-18 27 8 41q25 23 43 -8l183 -260q18 -25 -7 -41q-27 -16 -43 6z" />
<glyph unicode="a" horiz-adv-x="1150" d="M86 266q0 92 42 144.5t108.5 81t151.5 44t169 34t160 48t127 89.5q0 57 -22.5 107t-63.5 88t-100.5 59.5t-133.5 21.5q-57 0 -104 -15.5t-86 -39t-67.5 -50t-47.5 -49.5q-18 -25 -43 -6q-25 18 -6 43q23 29 56.5 60.5t78.5 57.5t99.5 43t119.5 17q88 0 159 -26.5 t120 -72.5t75.5 -107.5t26.5 -130.5v-523q0 -70 25.5 -96.5t56.5 -26.5t56.5 27t25.5 96q0 31 31 31t30 -31q0 -92 -40.5 -138t-102.5 -46q-61 0 -102 46t-41 138v432q-51 -45 -123 -67.5t-148.5 -37.5t-153.5 -28.5t-137.5 -37t-97.5 -65.5t-37 -114q0 -100 74 -162.5 t213 -62.5q106 0 173 42t106 89q18 25 43 6q25 -18 6 -43q-45 -57 -125 -106t-203 -49q-170 0 -259 81.5t-89 204.5z" />
<glyph unicode="b" horiz-adv-x="1226" d="M-8 1403q0 31 31 31h204q31 0 31 -31v-1075q43 -80 102 -144q49 -53 122 -98t165 -45q184 0 297 120t113 351q0 115 -29 203t-81 147.5t-123.5 90t-155.5 30.5q-92 0 -155.5 -42t-102.5 -89q-18 -25 -43 -6q-25 18 -7 43q45 57 122 106t186 49q100 0 183 -35.5 t142.5 -103t92 -167t32.5 -226.5t-33.5 -226.5t-95 -167t-148.5 -103t-194 -35.5q-70 0 -127 21.5t-102 51t-77 61t-50 52.5q-18 20 -25.5 8t-7.5 -29v-114q0 -31 -31 -31t-30 31v1310q0 31 -31 31h-143q-31 0 -31 31z" />
<glyph unicode="c" horiz-adv-x="1144" d="M106 512q0 119 35 217t96.5 168t145.5 108.5t184 38.5q61 0 115.5 -15t100.5 -38.5t81 -50.5t60 -49q18 -18 25 -7t7 27v82q0 31 31 31t31 -31v-327q0 -31 -31 -31t-31 31v102q-37 43 -77.5 82t-89 68.5t-103.5 47t-119 17.5q-84 0 -157.5 -34t-127 -95t-84 -148.5 t-30.5 -193.5q0 -109 30.5 -196t86 -148.5t134.5 -94t177 -32.5q111 0 216.5 48t172.5 159q16 23 39 4q12 -8 12 -21.5t-8 -25.5q-70 -111 -180.5 -168t-251.5 -57q-113 0 -204 38.5t-154.5 108.5t-97.5 168t-34 217z" />
<glyph unicode="d" horiz-adv-x="1277" d="M109 512q0 127 32.5 226.5t92 167t142.5 103t183 35.5q70 0 127 -21.5t102.5 -51t77 -61t49.5 -52.5q18 -20 25.5 -8t7.5 29v462q0 31 -30 31h-144q-31 0 -31 31t31 31h205q31 0 31 -31v-1219q0 -70 25.5 -96.5t56.5 -26.5t56.5 27t25.5 96q0 31 30 31q31 0 31 -31 q0 -92 -41 -138t-102 -46t-102.5 46t-41.5 138v512q-45 80 -102 144q-51 53 -123 98t-164 45q-84 0 -155.5 -30.5t-124 -90t-81 -147.5t-28.5 -203t28.5 -203t79 -147.5t117 -90t144.5 -30.5q106 0 172.5 42t105.5 89q18 25 43 6q25 -18 6 -43q-45 -57 -124.5 -106 t-202.5 -49q-92 0 -171 35.5t-136.5 103t-90 167t-32.5 226.5z" />
<glyph unicode="e" horiz-adv-x="1161" d="M106 512q0 119 35 217t98.5 168t151.5 108.5t197 38.5q106 0 195 -37.5t152.5 -100t98.5 -146.5t35 -176v-31q0 -61 -61 -61h-686q-31 0 -31 30q0 31 31 31h655q31 0 31 31q0 80 -31 152.5t-87 128t-133 87t-169 31.5t-169 -34t-133.5 -95t-87 -148.5t-30.5 -193.5 q0 -109 30.5 -196t87 -148.5t133.5 -94t169 -32.5q49 0 103 12.5t106.5 37t97.5 63.5t80 94q14 23 39 4q12 -8 12 -21.5t-8 -25.5q-70 -109 -184.5 -167t-245.5 -58q-109 0 -197 38.5t-151.5 108.5t-98.5 168t-35 217z" />
<glyph unicode="f" horiz-adv-x="868" d="M74 31q0 31 30 30h144q31 0 31 31v840q0 31 -31 31h-144q-31 0 -30 30q0 31 30 31h144q31 0 31 31v20q0 186 83.5 282.5t223.5 96.5q70 0 126 -23.5t96 -65.5t62.5 -100.5t22.5 -127.5q0 -31 -31 -31t-31 31q0 117 -68.5 186.5t-176.5 69.5q-109 0 -177.5 -78t-68.5 -240 v-20q0 -31 31 -31h245q31 0 31 -31t-31 -30h-245q-31 0 -31 -31v-840q0 -31 31 -31h143q31 0 31 -30q0 -31 -31 -31h-410q-30 0 -30 31z" />
<glyph unicode="g" horiz-adv-x="1236" d="M109 -82q0 39 6 72t16 59q8 29 23 55q10 29 39 19q27 -12 18 -41q-12 -27 -21 -53q-8 -23 -14 -52.5t-6 -58.5q0 -61 24.5 -113.5t78 -91.5t139.5 -60.5t209 -21.5t208.5 21.5t139 60.5t78 91.5t24.5 113.5t-24.5 113.5t-78 91.5t-139.5 60.5t-208 21.5q-139 0 -236.5 6 t-159 24.5t-89 55.5t-27.5 98t40.5 102t102.5 41q39 0 74.5 -13t79 -28.5t94.5 -27.5t121 -12q84 0 149.5 21.5t109.5 58t66.5 85t22.5 101.5t-22.5 101t-66.5 85t-109.5 58.5t-149.5 21.5q-178 0 -263.5 -82t-85.5 -235q0 -31 -30 -31q-31 0 -31 31q0 178 100.5 278 t309.5 100q92 0 163.5 -22.5t124.5 -63.5q8 74 47 111t95 37q61 0 102 -46t41 -138q0 -31 -31 -31t-30 31q0 70 -26 96t-56 26q-31 0 -56.5 -26.5t-25.5 -95.5v-23q61 -80 61 -182q0 -66 -26.5 -125.5t-79 -104.5t-128 -71.5t-175.5 -26.5q-78 0 -130.5 12.5t-92.5 27.5 t-73.5 28.5t-72.5 13.5q-31 0 -56.5 -25.5t-25.5 -56.5q0 -39 24.5 -62.5t78 -37t139.5 -18.5t209 -5q137 0 234 -26.5t158.5 -73.5t90.5 -110.5t29 -137.5t-29 -137.5t-90.5 -110.5t-158.5 -73.5t-234 -26.5q-139 0 -236.5 26.5t-159 73.5t-89 110.5t-27.5 137.5z" />
<glyph unicode="h" horiz-adv-x="1333" d="M39 31q0 31 31 30h143q31 0 31 31v1249q0 31 -31 31h-143q-31 0 -31 31t31 31h204q31 0 31 -31v-524q0 -16 7 -28.5t26 7.5q18 20 50 52t77 61.5t102.5 51t126.5 21.5q193 0 301.5 -104t108.5 -305v-543q0 -31 31 -31h143q31 0 31 -30q0 -31 -31 -31h-410q-31 0 -30 31 q0 31 30 30h144q31 0 30 31v543q0 178 -93 263t-255 85q-92 0 -164.5 -45t-121.5 -98q-59 -63 -103 -144v-604q0 -31 31 -31h143q31 0 31 -30q0 -31 -31 -31h-409q-31 0 -31 31z" />
<glyph unicode="i" horiz-adv-x="585" d="M76 31q0 31 30 30h144q31 0 31 31v840q0 31 -31 31h-144q-31 0 -30 30q0 31 30 31h205q31 0 31 -31v-901q0 -31 31 -31h143q31 0 31 -30q0 -31 -31 -31h-410q-30 0 -30 31zM219 1270q0 35 23.5 58.5t58.5 23.5t58.5 -23.5t23.5 -58.5t-23.5 -58.5t-58.5 -23.5t-58.5 23.5 t-23.5 58.5z" />
<glyph unicode="j" horiz-adv-x="501" d="M-268 -133q0 31 30 31q31 0 31 -31q0 -53 17.5 -97t48 -75t71.5 -47.5t88 -16.5q92 0 159 72t67 225v1004q0 31 -31 31h-143q-31 0 -31 30q0 31 31 31h204q31 0 31 -31v-1065q0 -178 -82 -268t-205 -90q-61 0 -113 21.5t-91 61.5t-60.5 94t-21.5 120zM182 1270 q0 35 23.5 58.5t58.5 23.5t58.5 -23.5t23.5 -58.5t-23.5 -58.5t-58.5 -23.5t-58.5 23.5t-23.5 58.5z" />
<glyph unicode="k" horiz-adv-x="1189" d="M39 31q0 31 31 30h143q31 0 31 31v1249q0 31 -31 31h-143q-31 0 -31 31t31 31h204q31 0 31 -31v-1008l492 537q10 10 8 20.5t-19 10.5h-153q-31 0 -31 30q0 31 31 31h440q31 0 31 -31t-31 -30h-131q-16 0 -29.5 -10.5t-23.5 -20.5l-307 -334l368 -506q10 -12 22.5 -21.5 t28.5 -9.5h134q31 0 30 -30q0 -31 -30 -31h-430q-31 0 -31 31t31 30h153q16 0 18.5 9.5t-8.5 21.5l-331 457l-232 -254v-203q0 -31 31 -31h143q31 0 31 -30q0 -31 -31 -31h-409q-31 0 -31 31z" />
<glyph unicode="l" horiz-adv-x="548" d="M39 31q0 31 31 30h143q31 0 31 31v1249q0 31 -31 31h-143q-31 0 -31 31t31 31h204q31 0 31 -31v-1311q0 -31 31 -31h143q31 0 31 -30q0 -31 -31 -31h-409q-31 0 -31 31z" />
<glyph unicode="m" horiz-adv-x="1964" d="M74 31q0 31 30 30h144q31 0 31 31v840q0 31 -31 31h-144q-31 0 -30 30q0 31 30 31h205q31 0 31 -31v-114q0 -8 2 -16.5t6 -12.5t10.5 -3t14.5 11q14 20 43.5 52t70.5 61.5t92.5 51t108.5 21.5q117 0 206 -66.5t124 -195.5q43 74 98 131q47 49 114.5 90t153.5 41 q74 0 137.5 -26.5t110.5 -78.5t74 -128t27 -176v-543q0 -31 30 -31h144q31 0 30 -30q0 -31 -30 -31h-410q-31 0 -31 31t31 30h143q31 0 31 31v543q0 88 -23.5 153.5t-62.5 108.5t-91 64.5t-110 21.5q-78 0 -142 -45t-112 -98q-55 -63 -98 -144q2 -16 3 -30.5t1 -30.5v-543 q0 -31 31 -31h143q31 0 31 -30q0 -31 -31 -31h-409q-31 0 -31 31t31 30h143q31 0 31 31v543q0 88 -23.5 153.5t-62.5 108.5t-91.5 64.5t-109.5 21.5q-78 -2 -141.5 -44t-110.5 -95q-53 -61 -96 -137v-615q0 -31 31 -31h143q31 0 31 -30q0 -31 -31 -31h-410q-30 0 -30 31z " />
<glyph unicode="n" horiz-adv-x="1368" d="M74 31q0 31 30 30h144q31 0 31 31v840q0 31 -31 31h-144q-31 0 -30 30q0 31 30 31h205q31 0 31 -31v-114q0 -16 7 -28.5t26 7.5q18 20 50 52t77 61.5t102 51t127 21.5q193 0 301.5 -104t108.5 -305v-543q0 -31 30 -31h144q31 0 30 -30q0 -31 -30 -31h-410q-31 0 -31 31 t31 30h144q31 0 30 31v543q0 178 -93 263t-255 85q-92 0 -164.5 -45t-122.5 -98q-59 -63 -102 -144v-604q0 -31 31 -31h143q31 0 31 -30q0 -31 -31 -31h-410q-30 0 -30 31z" />
<glyph unicode="o" d="M104 512q0 119 37 217t102.5 168t159 108.5t203.5 38.5q111 0 204 -38.5t158.5 -108.5t102.5 -168t37 -217t-37 -217t-102.5 -168t-158.5 -108.5t-204 -38.5t-204 38.5t-158.5 108.5t-102.5 168t-37 217zM166 512q0 -109 31.5 -196t89 -148.5t138.5 -94t181 -32.5 t181 32.5t138.5 94t89.5 148.5t32 196q0 106 -32 193.5t-89.5 148.5t-138 95t-181.5 34q-100 0 -181 -34t-138.5 -95t-89 -148.5t-31.5 -193.5z" />
<glyph unicode="p" horiz-adv-x="1273" d="M39 -379q0 31 31 31h143q31 0 31 31v1249q0 31 -31 31h-143q-31 0 -31 30q0 31 31 31h204q31 0 31 -31v-114q0 -16 7 -28.5t26 7.5q18 20 50 52t77 61.5t102.5 51t126.5 21.5q106 0 193.5 -35.5t149 -103t95 -167t33.5 -226.5t-32.5 -226.5t-92 -167t-142.5 -103 t-183 -35.5q-109 0 -185.5 49t-121.5 106q-18 25 6 43q25 18 43 -6q39 -47 102.5 -89t155.5 -42q84 0 155.5 30.5t124 90t81 147.5t28.5 203t-30 203t-83 147.5t-129 90t-168 30.5t-164.5 -45t-121.5 -98q-59 -63 -103 -144v-1013q0 -31 31 -31h143q31 0 31 -31t-31 -31 h-409q-31 0 -31 31z" />
<glyph unicode="q" horiz-adv-x="1273" d="M109 512q0 127 32.5 226.5t92 167t142.5 103t183 35.5q123 0 203 -49t125 -106q18 -25 -6 -43q-25 -18 -43 6q-18 23 -45 46.5t-61 41.5t-77 30.5t-96 12.5q-84 0 -155.5 -30.5t-124 -90t-81 -147.5t-28.5 -203q0 -231 112.5 -351t297.5 -120q92 0 163.5 45t122.5 98 q57 63 103 144v665q0 31 30 31h205q31 0 31 -31t-31 -30h-143q-31 0 -31 -31v-1249q0 -31 31 -31h143q31 0 31 -31t-31 -31h-409q-31 0 -31 31t31 31h143q31 0 31 31v462q0 16 -7.5 28.5t-25.5 -7.5t-50 -52t-77 -61.5t-102.5 -51t-126.5 -21.5q-109 0 -196 35.5t-148.5 103 t-94 167t-32.5 226.5z" />
<glyph unicode="r" horiz-adv-x="1038" d="M74 31q0 31 30 30h144q31 0 31 31v840q0 31 -31 31h-144q-31 0 -30 30q0 31 30 31h205q31 0 31 -31v-114q0 -8 2 -16.5t6 -12.5t10.5 -3t14.5 11q14 20 43.5 52t70.5 61.5t92.5 51t108.5 21.5q74 0 130 -21.5t96 -59t60.5 -88t20.5 -107.5q0 -31 -30 -31q-31 0 -31 31 q0 92 -64.5 153.5t-181.5 61.5q-78 -2 -141.5 -44t-110.5 -95q-53 -61 -96 -137v-615q0 -31 31 -31h143q31 0 31 -30q0 -31 -31 -31h-410q-30 0 -30 31z" />
<glyph unicode="s" horiz-adv-x="1093" d="M94 230.5q0 13.5 12 21.5q23 18 39 -4q37 -55 85.5 -94t101.5 -63.5t109.5 -37t111.5 -12.5q98 0 166.5 17.5t115 50t67 71.5t20.5 86q0 80 -59.5 118t-147.5 64.5t-192.5 47t-192.5 50t-147.5 86t-59.5 146.5q0 115 94 190.5t285 75.5q66 0 119 -15t96 -38.5t75.5 -50.5 t55.5 -49q18 -18 25.5 -7t7.5 27v82q0 31 30 31q31 0 31 -31v-327q0 -31 -31 -31t-30 31v102q-70 92 -166.5 153.5t-212.5 61.5q-162 0 -240 -56.5t-78 -148.5q0 -55 35 -93t90.5 -62.5t127 -41t147 -35t147.5 -38t127 -48t90 -75.5t35 -119q0 -57 -25.5 -109.5t-78 -91 t-134 -62t-192.5 -23.5q-141 0 -261 57t-190 168q-8 12 -8 25.5z" />
<glyph unicode="t" horiz-adv-x="845" d="M31 993q0 31 30 31h144q31 0 31 31v348q0 31 30 31q31 0 31 -31v-348q0 -31 31 -31h307q31 0 31 -31t-31 -30h-307q-31 0 -31 -31v-574q0 -154 66.5 -225.5t158.5 -71.5q45 0 86 16.5t72 47.5t49.5 75t18.5 97q0 31 30 31q31 0 31 -31q0 -66 -21.5 -120t-60.5 -94 t-91 -61.5t-114 -21.5q-123 0 -204.5 90t-81.5 268v574q0 31 -31 31h-144q-30 -1 -30 30z" />
<glyph unicode="u" horiz-adv-x="1331" d="M23 993q0 31 30 31h205q31 0 31 -31v-604q0 -178 93 -263t255 -85q92 0 163.5 45t123.5 98q57 63 102 144v604q0 31 -31 31h-143q-31 0 -31 30q0 31 31 31h205q31 0 30 -31v-901q0 -31 31 -31h144q31 0 30 -30q0 -31 -30 -31h-205q-31 0 -31 31v114q0 16 -7 28.5 t-26 -7.5q-18 -20 -50 -52t-77 -61.5t-102 -51t-127 -21.5q-193 0 -301.5 104t-108.5 305v543q0 31 -30 31h-144q-30 -1 -30 30z" />
<glyph unicode="v" horiz-adv-x="1277" d="M-2 993q0 31 31 31h409q31 0 31 -31t-31 -30h-147q-35 0 -21 -31l357 -834q4 -12 12 -12t12 12l357 834q14 31 -21 31h-147q-31 0 -31 30q0 31 31 31h409q31 0 31 -31t-31 -30h-133q-27 0 -41 -31l-395 -922q-14 -31 -41 -30q-27 0 -41 30l-395 922q-14 31 -41 31h-133 q-31 -1 -31 30z" />
<glyph unicode="w" horiz-adv-x="1769" d="M0 993q0 31 31 31h407q31 0 31 -31t-31 -30h-143q-35 0 -23 -31l277 -785q6 -12 14 -12t15 12l268 846q8 31 39 31t39 -31l268 -846q6 -12 14 -12t15 12l276 785q12 31 -22 31h-144q-31 0 -31 30q0 31 31 31h408q31 0 30 -31q0 -31 -30 -30h-133q-31 0 -41 -31l-326 -922 q-8 -31 -33 -30q-25 0 -32 30l-267 840q-6 16 -22.5 16t-22.5 -16l-266 -840q-8 -31 -33 -30q-25 0 -33 30l-325 922q-10 31 -41 31h-133q-31 -1 -31 30z" />
<glyph unicode="x" horiz-adv-x="1185" d="M45 31q0 31 31 30h123q16 0 28.5 9.5t22.5 21.5l293 408q12 18 0 37l-283 395q-8 12 -21.5 21.5t-29.5 9.5h-123q-31 0 -31 30q0 31 31 31h410q31 0 30 -31q0 -31 -30 -30h-144q-16 0 -23 -9.5t3 -21.5l246 -342q14 -23 28 0l248 342q10 12 3 21.5t-23 9.5h-144 q-31 0 -31 30q0 31 31 31h410q31 0 30 -31q0 -31 -30 -30h-123q-16 0 -29.5 -9.5t-21.5 -21.5l-283 -395q-12 -18 0 -37l293 -408q10 -12 22.5 -21.5t28.5 -9.5h123q31 0 31 -30q0 -31 -31 -31h-410q-31 0 -30 31q0 31 30 30h144q16 0 23 9.5t-3 21.5l-258 357q-14 20 -28 0 l-256 -357q-10 -12 -3 -21.5t23 -9.5h143q31 0 31 -30q0 -31 -31 -31h-409q-31 0 -31 31z" />
<glyph unicode="y" horiz-adv-x="1263" d="M-2 993q0 31 31 31h409q31 0 31 -31t-31 -30h-147q-35 0 -21 -31l387 -809q4 -10 11.5 -10t11.5 10l313 809q14 31 -20 31h-148q-31 0 -30 30q0 31 30 31h410q31 0 31 -31t-31 -30h-133q-27 0 -41 -31l-389 -1004q-33 -84 -67 -150.5t-72.5 -112.5t-87 -70.5 t-109.5 -24.5q-100 0 -168 64.5t-68 181.5q0 31 31 30q31 0 31 -30q0 -86 52 -135.5t122 -49.5q92 0 152.5 75t117.5 222l21 54q8 27 0 49l-424 901q-14 31 -41 31h-133q-31 -1 -31 30z" />
<glyph unicode="z" horiz-adv-x="1101" d="M100 35q0 12 6.5 22.5t18.5 24.5l754 848q10 10 6 21.5t-29 11.5h-651q-31 0 -31 -31v-174q0 -31 -31 -31t-30 31v235q0 31 30 31h826q31 0 30 -35q0 -20 -24 -47l-754 -848q-10 -10 -6 -21.5t29 -11.5h653q31 0 31 31v174q0 31 30 31q31 0 31 -31v-235q0 -31 -31 -31 h-827q-31 0 -31 35z" />
<glyph unicode="{" horiz-adv-x="663" d="M43 635q0 31 31 31h20q195 4 195 204v461q0 123 71.5 194.5t194.5 71.5h31q31 0 30 -30q0 -31 -30 -31h-31q-205 0 -205 -205v-461q0 -86 -32.5 -145t-110.5 -90q78 -31 110.5 -90.5t32.5 -145.5v-460q0 -205 205 -205h31q31 0 30 -31q0 -31 -30 -31h-31 q-123 0 -194.5 72t-71.5 195v460q0 199 -195 205h-20q-31 0 -31 31z" />
<glyph unicode="|" horiz-adv-x="503" d="M221 -379v1782q0 31 31 31t31 -31v-1782q0 -31 -31 -31t-31 31z" />
<glyph unicode="}" horiz-adv-x="663" d="M47 -297q0 31 31 31h31q205 0 204 205v460q0 86 33 145.5t111 90.5q-78 31 -111 90t-33 145v461q0 205 -204 205h-31q-31 0 -31 31t31 30h31q123 0 194.5 -71.5t71.5 -194.5v-461q0 -201 194 -204h21q31 0 31 -31t-31 -31h-21q-195 -6 -194 -205v-460q0 -123 -72 -195 t-194 -72h-31q-31 0 -31 31z" />
<glyph unicode="~" horiz-adv-x="1073" d="M160 573q0 205 205 205q61 0 104 -30.5t81 -66.5t76 -66.5t87 -30.5q143 0 143 143q0 31 31 31t31 -31q0 -205 -205 -205q-61 0 -104.5 31t-81.5 66.5t-75.5 66.5t-86.5 31q-143 0 -144 -144q0 -31 -31 -30q-30 -1 -30 30z" />
<glyph unicode="&#xa1;" horiz-adv-x="491" d="M143 942q0 47 28 74.5t75 27.5t74.5 -27.5t27.5 -74.5t-27.5 -74.5t-74.5 -27.5t-75 27.5t-28 74.5zM215 -379v1065q0 31 31 31t30 -31v-1065q0 -31 -30 -31q-31 0 -31 31z" />
<glyph unicode="&#xa2;" horiz-adv-x="1183" d="M117 512q0 117 32.5 212t91 164.5t139.5 110.5t177 45v113q0 31 31 31t30 -31v-115q53 -6 100.5 -22t87.5 -37.5t71.5 -46.5t56.5 -45q20 -16 26.5 -6t6.5 26v82q0 31 30 31q31 0 31 -31v-327q0 -31 -31 -31t-30 31v102q-45 51 -99 96q-47 37 -110.5 72t-139.5 45v-940 q111 4 206.5 53t160.5 154q14 23 39 4q12 -8 12 -21.5t-8 -25.5q-68 -104 -169 -162.5t-241 -62.5v-113q0 -31 -30 -31q-31 0 -31 31v115q-98 6 -180 48t-139.5 110.5t-89 162.5t-31.5 209zM178 512q0 -102 27.5 -185t78 -143.5t120 -97.5t153.5 -43v940q-80 -4 -149.5 -40 t-120.5 -97.5t-80 -145.5t-29 -188z" />
<glyph unicode="&#xa3;" horiz-adv-x="1183" d="M74 31q0 31 30 30q92 0 159 72t67 225v308q0 31 -31 30h-143q-31 0 -31 31t31 31h143q31 0 31 30v287q0 186 84 282.5t223 96.5q70 0 126 -23.5t96 -65.5t62.5 -100.5t22.5 -127.5q0 -31 -31 -31t-30 31q0 117 -69 186.5t-177 69.5q-109 0 -177.5 -78t-68.5 -240v-287 q0 -31 31 -30h246q31 0 30 -31q0 -31 -30 -31h-246q-31 0 -31 -30v-308q0 -104 -29.5 -179t-82.5 -118h542q45 0 86 16.5t72 47.5t49.5 75t18.5 97q0 31 30 31q31 0 31 -31q0 -66 -21.5 -120t-60.5 -94t-91 -61.5t-114 -21.5h-717q-30 0 -30 31z" />
<glyph unicode="&#xa4;" horiz-adv-x="1337" d="M133 31q0 31 31 30h143q31 0 31 31v277q0 31 -31 30h-143q-31 0 -31 31t31 31h143q31 0 31 31v92q0 31 -31 30h-143q-31 0 -31 31t31 31h143q31 0 31 31v634q0 31 -31 31h-143q-31 0 -31 31t31 31h686q201 0 305.5 -108.5t104.5 -301.5t-104.5 -301.5t-305.5 -108.5h-420 q-31 0 -31 -30v-92q0 -31 31 -31h574q31 0 30 -31q0 -31 -30 -31h-574q-31 0 -31 -30v-277q0 -31 31 -31h143q31 0 31 -30q0 -31 -31 -31h-409q-31 0 -31 31zM399 707q0 -31 31 -31h420q170 0 259 89t89 259t-89 259t-259 89h-420q-31 0 -31 -31v-634z" />
<glyph unicode="&#xa5;" horiz-adv-x="1439" d="M57 1403q0 31 31 31h410q31 0 30 -31q0 -31 -30 -31h-144q-16 0 -22 -9t2 -22l371 -647q14 -23 28 0l373 647q8 12 2 21.5t-23 9.5h-143q-31 0 -31 31t31 31h410q31 0 30 -31q0 -31 -30 -31h-123q-16 0 -29.5 -9t-21.5 -22l-396 -686q-8 -14 -2 -22t23 -8h235 q31 0 31 -31t-31 -31h-256q-31 0 -30 -31v-122q0 -31 30 -31h256q31 0 31 -31t-31 -31h-256q-31 0 -30 -30v-195q0 -31 30 -31h144q31 0 30 -30q0 -31 -30 -31h-410q-31 0 -31 31t31 30h143q31 0 31 31v195q0 31 -31 30h-256q-31 0 -30 31q0 31 30 31h256q31 0 31 31v122 q0 31 -31 31h-256q-31 0 -30 31q0 31 30 31h236q35 0 18 30l-395 686q-8 12 -21.5 21.5t-29.5 9.5h-123q-31 0 -31 31z" />
<glyph unicode="&#xa6;" horiz-adv-x="524" d="M231 338q0 31 31 31t31 -31v-717q0 -31 -31 -31t-31 31v717zM231 686v717q0 31 31 31t31 -31v-717q0 -31 -31 -31t-31 31z" />
<glyph unicode="&#xa7;" horiz-adv-x="1191" d="M129 532q0 104 53.5 180t163.5 105q10 4 10 10.5t-10 10.5q-45 18 -83 41.5t-64.5 55.5t-42 74t-15.5 97q0 154 109.5 241t341.5 87q147 0 264 -58.5t186 -167.5q8 -12 8.5 -25.5t-12.5 -21.5q-25 -18 -39 4q-35 55 -81 94t-99 64t-111.5 37t-115.5 12q-201 0 -295 -67.5 t-94 -198.5q0 -92 63.5 -144.5t159.5 -85t206.5 -58t207 -62.5t160 -98.5t63.5 -165.5t-53.5 -180t-163.5 -105q-10 -4 -10 -10.5t10 -10.5q45 -18 83 -41.5t64.5 -55.5t42 -74t15.5 -97q0 -154 -110 -241t-341 -87q-147 0 -264 58.5t-186 167.5q-8 12 -8.5 25.5t12.5 21.5 q25 18 39 -4q33 -55 79.5 -94t100 -64t112 -37t115.5 -12q201 0 295 67.5t94 198.5q0 92 -63.5 144.5t-159.5 85t-206.5 58t-207 62.5t-160 98.5t-63.5 165.5zM190 532q0 -72 43 -115.5t112 -74.5t156 -52.5t173 -43.5q170 0 248.5 68.5t78.5 177.5q0 70 -43 114.5 t-111.5 75.5t-155.5 51.5t-173 44.5q-170 0 -249 -68.5t-79 -177.5z" />
<glyph unicode="&#xa8;" horiz-adv-x="491" d="M0 1229q0 35 23.5 58.5t58.5 23.5t58.5 -23.5t23.5 -58.5t-23.5 -58.5t-58.5 -23.5t-58.5 23.5t-23.5 58.5zM328 1229q0 35 23.5 58.5t58.5 23.5t58.5 -23.5t23.5 -58.5t-24 -58.5t-58 -23.5q-35 0 -58.5 23.5t-23.5 58.5z" />
<glyph unicode="&#xa9;" horiz-adv-x="1798" d="M111 717q0 172 61 318.5t167.5 253t250 167t309.5 60.5t309.5 -60.5t250 -167t168 -253t61.5 -318.5t-61.5 -318.5t-168 -253t-250 -167t-309.5 -60.5t-309.5 60.5t-250 167t-167.5 253t-61 318.5zM172 717q0 -162 54.5 -297t151.5 -233.5t230 -152.5t291 -54t291 54 t230.5 152.5t151.5 233.5t54 297t-54 297t-151.5 233.5t-230.5 152.5t-291 54t-291 -54t-230 -152.5t-151.5 -233.5t-54.5 -297zM469 717q0 111 30.5 202t87 155.5t133.5 99t169 34.5q53 0 101 -14t88 -35.5t72 -49.5t54 -54q16 -20 24.5 -8t8.5 28v82q0 31 31 31t30 -31 v-307q0 -31 -30 -31q-31 0 -31 31v72q-45 61 -98 112q-47 41 -109.5 77t-140.5 36t-143.5 -30t-112.5 -85t-75 -135t-28 -180t28 -180t78 -135.5t119.5 -85t153.5 -29.5q100 0 189.5 48t156.5 159q14 23 39 4q12 -8 12.5 -21.5t-8.5 -25.5q-70 -109 -164 -167.5t-225 -58.5 q-100 0 -181 35t-138.5 99.5t-89 155.5t-31.5 202z" />
<glyph unicode="&#xaa;" horiz-adv-x="860" d="M123 950q0 57 21.5 90t57.5 53.5t82 33t94 25.5t93 34.5t82 60.5q0 63 -36 99t-128 36q-53 0 -101 -21.5t-79 -53.5q-23 -23 -43 0q-23 20 0 43q33 39 93 66.5t130 27.5q109 0 167 -51.5t58 -145.5v-325q0 -31 12.5 -46.5t28.5 -15.5t28.5 15.5t12.5 46.5t31 30 q31 0 31 -30q0 -61 -28 -92t-75 -31t-74.5 30.5t-27.5 92.5v256q-47 -43 -109.5 -60.5t-121 -34t-98.5 -44t-40 -89.5q0 -37 34 -68.5t120 -31.5q31 0 68.5 9t56.5 24q12 10 21.5 11t21.5 -11q10 -10 10 -23.5t-10 -21.5q-27 -23 -71 -36.5t-97 -13.5q-98 0 -156.5 47 t-58.5 115z" />
<glyph unicode="&#xab;" horiz-adv-x="1021" d="M82 510q0 18 14 33l473 471q20 20 43 0q20 -23 0 -43l-442 -443q-18 -18 0 -36l438 -439q20 -23 0 -43q-23 -23 -43 0l-467 465q-16 17 -16 35zM430 510q0 18 14 33l381 379q20 20 43 0q20 -23 0 -43l-350 -351q-18 -18 0 -36l346 -347q20 -23 0 -43q-23 -23 -43 0 l-375 373q-16 17 -16 35z" />
<glyph unicode="&#xac;" d="M188 676q0 31 31 31h799q31 0 31 -31v-215q0 -31 -31 -31t-31 31v153q0 31 -31 31h-737q-31 0 -31 31z" />
<glyph unicode="&#xad;" horiz-adv-x="1171" d="M156 655q0 31 30 31h799q31 0 31 -31t-31 -30h-799q-30 -1 -30 30z" />
<glyph unicode="&#xae;" horiz-adv-x="1798" d="M111 717q0 172 61 318.5t167.5 253t250 167t309.5 60.5t309.5 -60.5t250 -167t168 -253t61.5 -318.5t-61.5 -318.5t-168 -253t-250 -167t-309.5 -60.5t-309.5 60.5t-250 167t-167.5 253t-61 318.5zM172 717q0 -162 54.5 -297t151.5 -233.5t230 -152.5t291 -54t291 54 t230.5 152.5t151.5 233.5t54 297t-54 297t-151.5 233.5t-230.5 152.5t-291 54t-291 -54t-230 -152.5t-151.5 -233.5t-54.5 -297zM469 256q0 31 31 31h102q31 0 31 30v779q0 31 -31 30h-102q-31 0 -31 31t31 31h491q139 0 218 -74t79 -182q0 -109 -79 -182.5t-218 -73.5 q-16 0 -23 -9.5t3 -21.5l213 -328q10 -12 22.5 -21t28.5 -9h92q31 0 31 -31t-31 -31h-338q-31 0 -31 31t31 31h109q16 0 18 9t-8 21l-234 359h-67q-31 0 -31 31t31 30h184q57 0 101.5 16.5t74 43t45 61.5t15.5 74t-15.5 73.5t-45 61.5t-73.5 43t-102 16h-266q-31 0 -31 -30 v-779q0 -31 31 -30h102q31 0 31 -31t-31 -31h-327q-31 0 -31 31z" />
<glyph unicode="&#xb0;" horiz-adv-x="901" d="M113 1106q0 74 25.5 137.5t70.5 110.5t106.5 73.5t135.5 26.5t135 -26.5t106 -73.5t70.5 -110.5t25.5 -137.5t-25.5 -137.5t-70.5 -110.5t-106.5 -73.5t-134.5 -26.5q-74 0 -135.5 26.5t-106.5 73.5t-70.5 110.5t-25.5 137.5zM174 1106q0 -61 21.5 -113.5t59.5 -91.5 t88 -60.5t108 -21.5q57 0 107 21.5t88 60.5t59.5 91t21.5 114q0 61 -21.5 113.5t-59.5 91.5t-88 60.5t-107 21.5t-107.5 -21.5t-88.5 -60.5t-59.5 -91.5t-21.5 -113.5z" />
<glyph unicode="&#xb1;" horiz-adv-x="1046" d="M92 205q0 31 31 31h799q31 0 30 -31q0 -31 -30 -31h-799q-31 0 -31 31zM92 655q0 31 31 31h328q31 0 30 31v338q0 31 31 30q31 0 31 -30v-338q0 -31 30 -31h349q31 0 30 -31q0 -31 -30 -30h-349q-31 0 -30 -31v-256q0 -31 -31 -31t-31 31v256q0 31 -30 31h-328 q-31 -1 -31 30z" />
<glyph unicode="&#xb2;" horiz-adv-x="821" d="M154 829v62q0 63 33.5 104t82.5 68t108.5 44t109 36.5t83 46.5t33.5 70q0 53 -44 87.5t-161 34.5q-70 0 -122 -25.5t-80 -58.5q-8 -12 -20.5 -11t-22.5 11q-23 20 0 43q31 31 95 67t150 36q139 0 203 -49t64 -135q0 -59 -34 -94.5t-83 -59t-108.5 -39.5t-108.5 -37.5 t-83 -53.5t-34 -85q0 -31 31 -31h327q31 0 31 31v51q0 31 31 31t31 -31v-113q0 -31 -31 -30h-451q-30 -1 -30 30z" />
<glyph unicode="&#xb3;" horiz-adv-x="780" d="M145 891q-23 20 0 43q20 20 43 0q31 -33 87.5 -58.5t117.5 -25.5q109 0 152 32.5t43 80.5q0 61 -43 97t-121 36h-133q-31 0 -31 30q0 29 31 29h133q61 0 102 26.5t41 88.5q0 47 -42 79.5t-142 32.5q-53 0 -106.5 -21.5t-83.5 -53.5q-23 -23 -43 0q-23 20 0 43 q33 39 98 66.5t135 27.5q123 0 184.5 -48t61.5 -126q0 -53 -24.5 -87t-78.5 -57q61 -23 92 -62.5t31 -100.5q0 -78 -62.5 -126.5t-193.5 -48.5q-78 0 -146.5 32t-101.5 71z" />
<glyph unicode="&#xb4;" horiz-adv-x="249" d="M8 1196l182 260q18 31 43 8q27 -14 9 -41l-185 -262q-18 -23 -43 -6q-24 16 -6 41z" />
<glyph unicode="&#xb5;" horiz-adv-x="1409" d="M76 993q0 31 30 31h205q31 0 31 -31v-622q0 -168 94 -249t254 -81q92 0 164 45t123 98q57 63 102 144v604q0 31 -30 31h-144q-31 0 -31 30q0 31 31 31h205q31 0 31 -31v-901q0 -31 30 -31h144q31 0 31 -30q0 -31 -31 -31h-205q-31 0 -31 31v114q0 16 -7 28.5t-25 -7.5 t-50 -52t-77.5 -61.5t-102.5 -51t-127 -21.5q-246 0 -348 163v-522q0 -31 -31 -31t-30 31v1311q0 31 -31 31h-144q-30 -1 -30 30z" />
<glyph unicode="&#xb6;" horiz-adv-x="1505" d="M76 942q0 119 37 211t102.5 154.5t158.5 94.5t204 32h829q31 0 31 -31t-31 -31h-236v-1751q0 -31 -30 -31q-31 0 -31 31v1751h-348v-1751q0 -31 -31 -31t-31 31v1751h-122q-201 0 -321 -107.5t-120 -322.5t120 -322.5t321 -107.5q31 0 30 -31q0 -31 -30 -30 q-111 0 -204 31.5t-158.5 94t-102.5 154.5t-37 211z" />
<glyph unicode="&#xb7;" horiz-adv-x="516" d="M156 717q0 47 27.5 74.5t74.5 27.5t74.5 -27.5t27.5 -74.5t-27.5 -75t-74.5 -28t-74.5 28t-27.5 75z" />
<glyph unicode="&#xb8;" horiz-adv-x="235" d="M0 -338q0 31 31 31q84 0 113.5 25.5t29.5 56.5t-24.5 56.5t-77.5 25.5h-31q-31 0 -31 30v113q0 31 31 31t31 -31v-82q78 0 121 -41t43 -102t-48.5 -102.5t-156.5 -41.5q-31 0 -31 31z" />
<glyph unicode="&#xb9;" horiz-adv-x="632" d="M129 1243q-20 27 4 45l152 125q10 8 24.5 19.5t30.5 11.5q41 0 41 -31v-522q0 -31 31 -31h82q31 0 30 -31q0 -31 -30 -30h-287q-31 0 -31 30q0 31 31 31h82q31 0 30 31v450q0 8 -8 9.5t-20 -9.5l-117 -100q-22 -21 -45 2z" />
<glyph unicode="&#xba;" horiz-adv-x="811" d="M119 1116q0 154 82 241t205 87t204.5 -87t81.5 -241t-82 -241t-204 -87q-123 0 -205 87t-82 241zM180 1116q0 -131 62.5 -198.5t163.5 -67.5q100 0 162.5 67.5t62.5 198.5t-62.5 198.5t-162.5 67.5t-163 -67.5t-63 -198.5z" />
<glyph unicode="&#xbb;" horiz-adv-x="1021" d="M154 879q-23 20 0 43q20 20 43 0l381 -379q14 -14 14 -32.5t-17 -35.5l-374 -373q-23 -23 -43 0q-23 20 0 43l346 347q18 18 0 36zM410 971q-23 20 0 43q20 20 43 0l473 -471q14 -14 14 -32.5t-16 -35.5l-467 -465q-23 -23 -43 0q-23 20 0 43l438 439q18 18 0 36z" />
<glyph unicode="&#xbc;" horiz-adv-x="1376" d="M100 1245q-20 27 4 45l152 125q10 8 24.5 19.5t30.5 11.5q41 0 41 -31v-522q0 -31 31 -31h82q31 0 31 -31t-31 -30h-287q-31 0 -31 30q0 31 31 31h82q31 0 31 31v450q0 8 -8.5 9.5t-20.5 -9.5l-117 -100q-22 -21 -45 2zM213 47l887 1370q10 14 19 15.5t22 -5.5 q29 -18 8 -41l-885 -1372q-16 -23 -41 -10q-28 14 -10 43zM705.5 180.5q-3.5 16.5 5.5 24.5q45 39 82.5 80t65.5 91t42 110.5t14 138.5q0 31 31 30q31 0 31 -30q0 -139 -46 -242.5t-108 -157.5h267q31 0 30 31v217q0 31 31 31t31 -31v-217q0 -31 30 -31h62q31 0 31 -30 q0 -31 -31 -31h-62q-31 0 -30 -31v-113q0 -31 -31 -30q-31 0 -31 30v113q0 31 -30 31h-359q-22 0 -25.5 16.5z" />
<glyph unicode="&#xbd;" horiz-adv-x="1380" d="M90 1245q-20 27 4 45l152 125q10 8 24.5 19.5t30.5 11.5q41 0 41 -31v-522q0 -31 31 -31h82q31 0 30 -31q0 -31 -30 -30h-287q-31 0 -31 30q0 31 31 31h82q31 0 31 31v450q0 8 -8.5 9.5t-20.5 -9.5l-117 -100q-22 -21 -45 2zM203 47l887 1370q10 14 19 15.5t21 -5.5 q29 -18 9 -41l-885 -1372q-16 -23 -41 -10q-28 14 -10 43zM768 31v61q0 63 34 104.5t83 68t108.5 44t108.5 37t83 46t34 69.5q0 53 -44.5 88t-160.5 35q-70 0 -122 -26t-81 -58q-8 -12 -20.5 -11.5t-22.5 11.5q-23 20 0 43q31 31 95.5 66.5t150.5 35.5q139 0 202.5 -49 t63.5 -135q0 -59 -34 -94t-83 -58.5t-108.5 -40t-108.5 -38t-83 -53.5t-34 -85q0 -31 31 -31h328q31 0 31 31v51q0 31 30 31q31 0 31 -31v-112q0 -31 -31 -31h-450q-31 0 -31 31z" />
<glyph unicode="&#xbe;" horiz-adv-x="1445" d="M111 891q-23 20 0 43q20 20 43 0q31 -33 87 -58.5t117 -25.5q109 0 152 32.5t43 80.5q0 61 -43 97t-121 36h-133q-31 0 -31 30q0 29 31 29h133q61 0 102 26.5t41 88.5q0 47 -41.5 79.5t-142.5 32.5q-53 0 -106.5 -21.5t-83.5 -53.5q-23 -23 -43 0q-23 20 0 43 q33 39 98.5 66.5t134.5 27.5q123 0 184.5 -48t61.5 -126q0 -53 -24.5 -87t-77.5 -57q61 -23 91.5 -62.5t30.5 -100.5q0 -78 -62.5 -126.5t-193.5 -48.5q-78 0 -146 32t-101 71zM283 47l886 1370q10 14 19.5 15.5t21.5 -5.5q29 -18 9 -41l-885 -1372q-16 -23 -41 -10 q-28 14 -10 43zM775 180.5q-3 16.5 5 24.5q45 39 83 80t65.5 91t42 110.5t14.5 138.5q0 31 31 30q31 0 31 -30q0 -139 -46.5 -242.5t-107.5 -157.5h266q31 0 31 31v217q0 31 31 31t30 -31v-217q0 -31 31 -31h61q31 0 31 -30q0 -31 -31 -31h-61q-31 0 -31 -31v-113 q0 -31 -30 -30q-31 0 -31 30v113q0 31 -31 31h-358q-23 0 -26 16.5z" />
<glyph unicode="&#xbf;" horiz-adv-x="1089" d="M82 -41q0 96 32.5 165t82 122t105.5 96t105.5 91t82 108.5t32.5 144.5q0 31 31 31t31 -31q0 -94 -33 -160.5t-82 -117t-105.5 -93.5t-105.5 -92t-82 -111.5t-33 -152.5q0 -61 27 -120.5t79 -105.5t128 -74t176 -28q193 0 301.5 93.5t108.5 255.5q0 31 30 30q31 0 31 -30 q0 -92 -31.5 -168t-92 -129.5t-148.5 -83t-199 -29.5q-115 0 -203 34t-147.5 88t-90 123.5t-30.5 143.5zM451 942q0 47 27.5 74.5t74.5 27.5t74.5 -27.5t27.5 -74.5t-27.5 -74.5t-74.5 -27.5t-74.5 27.5t-27.5 74.5z" />
<glyph unicode="&#xc0;" horiz-adv-x="1482" d="M-20 31q0 31 30 30h133q27 0 41 31l512 1331q10 31 45 31t45 -31l512 -1331q14 -31 41 -31h134q31 0 30 -30q0 -31 -30 -31h-410q-31 0 -31 31t31 30h143q35 0 21 31l-473 1229q-4 12 -12.5 12t-12.5 -12l-260 -676q-6 -14 0 -22.5t23 -8.5h389q31 0 30 -30 q0 -31 -30 -31h-410q-16 0 -29.5 -7t-19.5 -22l-166 -432q-14 -31 20 -31h144q31 0 31 -30q0 -31 -31 -31h-410q-30 0 -30 31zM526 1822q-18 27 8 41q25 23 43 -8l183 -260q18 -25 -7 -41q-27 -16 -43 6z" />
<glyph unicode="&#xc1;" horiz-adv-x="1482" d="M-20 31q0 31 30 30h133q27 0 41 31l512 1331q10 31 45 31t45 -31l512 -1331q14 -31 41 -31h134q31 0 30 -30q0 -31 -30 -31h-410q-31 0 -31 31t31 30h143q35 0 21 31l-473 1229q-4 12 -12.5 12t-12.5 -12l-260 -676q-6 -14 0 -22.5t23 -8.5h389q31 0 30 -30 q0 -31 -30 -31h-410q-16 0 -29.5 -7t-19.5 -22l-166 -432q-14 -31 20 -31h144q31 0 31 -30q0 -31 -31 -31h-410q-30 0 -30 31zM719 1595l182 260q18 31 43 8q27 -14 9 -41l-185 -262q-18 -23 -43 -6q-24 16 -6 41z" />
<glyph unicode="&#xc2;" horiz-adv-x="1482" d="M-20 31q0 31 30 30h133q27 0 41 31l512 1331q10 31 45 31t45 -31l512 -1331q14 -31 41 -31h134q31 0 30 -30q0 -31 -30 -31h-410q-31 0 -31 31t31 30h143q35 0 21 31l-473 1229q-4 12 -12.5 12t-12.5 -12l-260 -676q-6 -14 0 -22.5t23 -8.5h389q31 0 30 -30 q0 -31 -30 -31h-410q-16 0 -29.5 -7t-19.5 -22l-166 -432q-14 -31 20 -31h144q31 0 31 -30q0 -31 -31 -31h-410q-30 0 -30 31zM485 1516q-23 20 0 43l219 223q16 16 35 16t33 -14l225 -225q20 -23 0 -43q-23 -23 -43 0l-196 194q-18 18 -37 0l-193 -194q-23 -23 -43 0z" />
<glyph unicode="&#xc3;" horiz-adv-x="1482" d="M-20 31q0 31 30 30h133q27 0 41 31l512 1331q10 31 45 31t45 -31l512 -1331q14 -31 41 -31h134q31 0 30 -30q0 -31 -30 -31h-410q-31 0 -31 31t31 30h143q35 0 21 31l-473 1229q-4 12 -12.5 12t-12.5 -12l-260 -676q-6 -14 0 -22.5t23 -8.5h389q31 0 30 -30 q0 -31 -30 -31h-410q-16 0 -29.5 -7t-19.5 -22l-166 -432q-14 -31 20 -31h144q31 0 31 -30q0 -31 -31 -31h-410q-30 0 -30 31zM485 1559q0 92 41 138t102 46q49 0 78 -23.5t50.5 -53.5t42 -53.5t55.5 -23.5q31 0 56.5 27t25.5 96q0 31 30 31q31 0 31 -31q0 -92 -41 -138 t-102 -46q-49 0 -78 23.5t-50.5 53t-42 53t-55.5 23.5q-31 0 -56.5 -26.5t-25.5 -95.5q0 -31 -30 -31q-31 0 -31 31z" />
<glyph unicode="&#xc4;" horiz-adv-x="1482" d="M-20 31q0 31 30 30h133q27 0 41 31l512 1331q10 31 45 31t45 -31l512 -1331q14 -31 41 -31h134q31 0 30 -30q0 -31 -30 -31h-410q-31 0 -31 31t31 30h143q35 0 21 31l-473 1229q-4 12 -12.5 12t-12.5 -12l-260 -676q-6 -14 0 -22.5t23 -8.5h389q31 0 30 -30 q0 -31 -30 -31h-410q-16 0 -29.5 -7t-19.5 -22l-166 -432q-14 -31 20 -31h144q31 0 31 -30q0 -31 -31 -31h-410q-30 0 -30 31zM496 1608q0 35 23.5 58.5t58.5 23.5t58.5 -23.5t23.5 -58.5t-23.5 -58.5t-58.5 -23.5t-58.5 23.5t-23.5 58.5zM824 1608q0 35 23.5 58.5 t58.5 23.5t58.5 -23.5t23.5 -58.5t-24 -58.5t-58 -23.5q-35 0 -58.5 23.5t-23.5 58.5z" />
<glyph unicode="&#xc5;" horiz-adv-x="1484" d="M-18 31q0 31 30 30h133q27 0 41 31l502 1309q-51 16 -79.5 58t-28.5 97q0 70 45 117t118 47q74 0 119 -47t45 -117q0 -55 -29.5 -97t-80.5 -58l503 -1309q14 -31 41 -31h134q31 0 30 -30q0 -31 -30 -31h-410q-31 0 -31 31t31 30h143q35 0 21 31l-473 1229q-4 12 -12.5 12 t-12.5 -12l-260 -676q-6 -14 0 -22.5t23 -8.5h389q31 0 30 -30q0 -31 -30 -31h-410q-16 0 -29.5 -7t-19.5 -22l-166 -432q-14 -31 21 -31h143q31 0 31 -30q0 -31 -31 -31h-410q-30 0 -30 31zM641 1556q0 -45 25.5 -72.5t68.5 -29.5h8q47 0 75 27.5t28 74.5t-27.5 75 t-75.5 28q-47 0 -74.5 -28t-27.5 -75z" />
<glyph unicode="&#xc6;" horiz-adv-x="1974" d="M-49 31q0 31 31 30h133q27 0 41 31l721 1301q6 14 18 27.5t35 13.5h885q31 0 30 -31v-287q0 -31 -30 -31q-31 0 -31 31v225q0 31 -31 31h-645q-31 0 -31 -31v-553q0 -31 31 -30h461q31 0 30 30v103q0 31 31 31t31 -31v-328q0 -31 -31 -31t-31 31v103q0 31 -30 30h-461 q-31 0 -31 -30v-574q0 -31 31 -31h666q31 0 30 31v225q0 31 31 31t31 -31v-286q0 -31 -31 -31h-993q-31 0 -31 31t31 30h143q31 0 31 31v1249q0 31 -31 31h-22q-27 0 -41 -31l-387 -696q-6 -14 0 -22.5t22 -8.5h295q31 0 31 -30q0 -31 -31 -31h-336q-16 0 -29.5 -7 t-19.5 -22l-240 -432q-14 -31 21 -31h143q31 0 31 -30q0 -31 -31 -31h-409q-31 0 -31 31z" />
<glyph unicode="&#xc7;" horiz-adv-x="1456" d="M121 717q0 158 48 293t135 233t210 154.5t272 56.5q76 0 143.5 -18.5t122 -45t95.5 -57t67 -53.5q20 -16 26.5 -6t6.5 26v103q0 31 31 31t31 -31v-389q0 -31 -31 -31t-31 31v143q-57 63 -127 117q-59 45 -144 82t-190 37q-135 0 -245.5 -51.5t-190.5 -141.5t-124 -214 t-44 -269t44 -269t126 -214.5t198 -141.5t257 -51q139 0 262 58.5t207 168.5q20 20 43 0q10 -11 10 -21.5t-10 -21.5q-86 -109 -213 -177t-299 -68q-158 0 -285 56t-216 154.5t-137 233.5t-48 293zM721 -338q0 31 31 31q84 0 113.5 25.5t29.5 56.5t-24.5 56.5t-77.5 25.5 h-31q-31 0 -31 30v113q0 31 31 31t31 -31v-82q78 0 121 -41t43 -102t-48.5 -102.5t-156.5 -41.5q-31 0 -31 31z" />
<glyph unicode="&#xc8;" horiz-adv-x="1257" d="M94 31q0 31 31 30h143q31 0 31 31v1249q0 31 -31 31h-143q-31 0 -31 31t31 31h973q31 0 30 -31v-287q0 -31 -30 -31q-31 0 -31 31v225q0 31 -31 31h-645q-31 0 -31 -31v-553q0 -31 31 -30h461q31 0 31 30v103q0 31 30 31q31 0 31 -31v-328q0 -31 -31 -31t-30 31v103 q0 31 -31 30h-461q-31 0 -31 -30v-574q0 -31 31 -31h666q31 0 30 31v225q0 31 31 31t31 -31v-286q0 -31 -31 -31h-993q-31 0 -31 31zM483 1833q-18 27 8 41q25 23 43 -8l183 -260q18 -25 -7 -41q-27 -16 -43 6z" />
<glyph unicode="&#xc9;" horiz-adv-x="1257" d="M94 31q0 31 31 30h143q31 0 31 31v1249q0 31 -31 31h-143q-31 0 -31 31t31 31h973q31 0 30 -31v-287q0 -31 -30 -31q-31 0 -31 31v225q0 31 -31 31h-645q-31 0 -31 -31v-553q0 -31 31 -30h461q31 0 31 30v103q0 31 30 31q31 0 31 -31v-328q0 -31 -31 -31t-30 31v103 q0 31 -31 30h-461q-31 0 -31 -30v-574q0 -31 31 -31h666q31 0 30 31v225q0 31 31 31t31 -31v-286q0 -31 -31 -31h-993q-31 0 -31 31zM606 1585l182 260q18 31 43 8q27 -14 9 -41l-185 -262q-18 -23 -43 -6q-24 16 -6 41z" />
<glyph unicode="&#xca;" horiz-adv-x="1257" d="M94 31q0 31 31 30h143q31 0 31 31v1249q0 31 -31 31h-143q-31 0 -31 31t31 31h973q31 0 30 -31v-287q0 -31 -30 -31q-31 0 -31 31v225q0 31 -31 31h-645q-31 0 -31 -31v-553q0 -31 31 -30h461q31 0 31 30v103q0 31 30 31q31 0 31 -31v-328q0 -31 -31 -31t-30 31v103 q0 31 -31 30h-461q-31 0 -31 -30v-574q0 -31 31 -31h666q31 0 30 31v225q0 31 31 31t31 -31v-286q0 -31 -31 -31h-993q-31 0 -31 31zM385 1569q-23 20 0 43l219 223q16 16 35 16t33 -14l225 -225q20 -23 0 -43q-23 -23 -43 0l-196 194q-18 18 -37 0l-193 -194q-23 -23 -43 0 z" />
<glyph unicode="&#xcb;" horiz-adv-x="1257" d="M94 31q0 31 31 30h143q31 0 31 31v1249q0 31 -31 31h-143q-31 0 -31 31t31 31h973q31 0 30 -31v-287q0 -31 -30 -31q-31 0 -31 31v225q0 31 -31 31h-645q-31 0 -31 -31v-553q0 -31 31 -30h461q31 0 31 30v103q0 31 30 31q31 0 31 -31v-328q0 -31 -31 -31t-30 31v103 q0 31 -31 30h-461q-31 0 -31 -30v-574q0 -31 31 -31h666q31 0 30 31v225q0 31 31 31t31 -31v-286q0 -31 -31 -31h-993q-31 0 -31 31zM395 1639q0 35 23.5 58.5t58.5 23.5t58.5 -23.5t23.5 -58.5t-23.5 -58.5t-58.5 -23.5t-58.5 23.5t-23.5 58.5zM723 1639q0 35 23.5 58.5 t58.5 23.5t58.5 -23.5t23.5 -58.5t-24 -58.5t-58 -23.5q-35 0 -58.5 23.5t-23.5 58.5z" />
<glyph unicode="&#xcc;" horiz-adv-x="659" d="M94 31q0 31 31 30h143q31 0 31 31v1249q0 31 -31 31h-143q-31 0 -31 31t31 31h410q31 0 30 -31q0 -31 -30 -31h-144q-31 0 -31 -31v-1249q0 -31 31 -31h144q31 0 30 -30q0 -31 -30 -31h-410q-31 0 -31 31zM113 1812q-18 27 8 41q25 23 43 -8l183 -260q18 -25 -7 -41 q-27 -16 -43 6z" />
<glyph unicode="&#xcd;" horiz-adv-x="659" d="M94 31q0 31 31 30h143q31 0 31 31v1249q0 31 -31 31h-143q-31 0 -31 31t31 31h410q31 0 30 -31q0 -31 -30 -31h-144q-31 0 -31 -31v-1249q0 -31 31 -31h144q31 0 30 -30q0 -31 -30 -31h-410q-31 0 -31 31zM295 1585l182 260q18 31 43 8q27 -14 9 -41l-185 -262 q-18 -23 -43 -6q-24 16 -6 41z" />
<glyph unicode="&#xce;" horiz-adv-x="659" d="M94 31q0 31 31 30h143q31 0 31 31v1249q0 31 -31 31h-143q-31 0 -31 31t31 31h410q31 0 30 -31q0 -31 -30 -31h-144q-31 0 -31 -31v-1249q0 -31 31 -31h144q31 0 30 -30q0 -31 -30 -31h-410q-31 0 -31 31zM73 1569q-23 20 0 43l219 223q16 16 35 16t33 -14l225 -225 q20 -23 0 -43q-23 -23 -43 0l-196 194q-18 18 -37 0l-193 -194q-23 -23 -43 0z" />
<glyph unicode="&#xcf;" horiz-adv-x="659" d="M94 31q0 31 31 30h143q31 0 31 31v1249q0 31 -31 31h-143q-31 0 -31 31t31 31h410q31 0 30 -31q0 -31 -30 -31h-144q-31 0 -31 -31v-1249q0 -31 31 -31h144q31 0 30 -30q0 -31 -30 -31h-410q-31 0 -31 31zM84 1659q0 35 23.5 58.5t58.5 23.5t58.5 -23.5t23.5 -58.5 t-23.5 -58.5t-58.5 -23.5t-58.5 23.5t-23.5 58.5zM412 1659q0 35 23.5 58.5t58.5 23.5t58.5 -23.5t23.5 -58.5t-24 -58.5t-58 -23.5q-35 0 -58.5 23.5t-23.5 58.5z" />
<glyph unicode="&#xd0;" horiz-adv-x="1503" d="M94 31q0 31 31 30h143q31 0 31 31v563q0 31 -31 31h-143q-31 0 -31 31t31 31h143q31 0 31 30v563q0 31 -31 31h-143q-31 0 -31 31t31 31h573q158 0 285 -56.5t216 -153t137 -227.5t48 -280q0 -150 -48 -281t-137 -227t-216 -152.5t-285 -56.5h-573q-31 0 -31 31zM360 92 q0 -31 31 -31h307q141 0 257 50.5t198 139.5t126 208t44 258q0 137 -44 257t-126 209t-197.5 139t-257.5 50h-307q-31 0 -31 -31v-563q0 -31 31 -30h144q31 0 30 -31q0 -31 -30 -31h-144q-31 0 -31 -31v-563z" />
<glyph unicode="&#xd1;" horiz-adv-x="1607" d="M94 31q0 31 31 30h143q31 0 31 31v1249q0 31 -31 31h-143q-31 0 -31 31t31 31h225q23 0 33 -9.5t18 -21.5l840 -1280q4 -8 12.5 -7t8.5 17v1208q0 31 -31 31h-144q-31 0 -30 31q0 31 30 31h410q31 0 31 -31t-31 -31h-143q-31 0 -31 -31v-1300q0 -41 -41 -41h-10 q-23 0 -33 9t-18 22l-840 1280q-4 8 -12.5 7t-8.5 -18v-1208q0 -31 31 -31h144q31 0 30 -30q0 -31 -30 -31h-410q-31 0 -31 31zM535 1608q0 92 41 138t102 46q49 0 78 -23.5t50.5 -53.5t42 -53.5t55.5 -23.5q31 0 56.5 27t25.5 96q0 31 30 31q31 0 31 -31q0 -92 -41 -138 t-102 -46q-49 0 -78 23.5t-50.5 53t-42 53t-55.5 23.5q-31 0 -56.5 -26.5t-25.5 -95.5q0 -31 -30 -31q-31 0 -31 31z" />
<glyph unicode="&#xd2;" horiz-adv-x="1609" d="M119 717q0 158 48 293t137 233t216 154.5t285 56.5t285 -56.5t216 -154.5t137 -233.5t48 -292.5q0 -158 -48 -293t-137 -233.5t-216 -154.5t-285 -56t-285 56t-216 154.5t-137 233.5t-48 293zM180 717q0 -145 44 -269t126 -214.5t198 -141.5t257 -51t257 51t197.5 141.5 t126 214t44.5 269.5q0 145 -44.5 269t-126 214t-197.5 141.5t-257 51.5t-257 -51.5t-198 -141.5t-126 -214t-44 -269zM606 1833q-18 27 8 41q25 23 43 -8l183 -260q18 -25 -7 -41q-27 -16 -43 6z" />
<glyph unicode="&#xd3;" horiz-adv-x="1609" d="M119 717q0 158 48 293t137 233t216 154.5t285 56.5t285 -56.5t216 -154.5t137 -233.5t48 -292.5q0 -158 -48 -293t-137 -233.5t-216 -154.5t-285 -56t-285 56t-216 154.5t-137 233.5t-48 293zM180 717q0 -145 44 -269t126 -214.5t198 -141.5t257 -51t257 51t197.5 141.5 t126 214t44.5 269.5q0 145 -44.5 269t-126 214t-197.5 141.5t-257 51.5t-257 -51.5t-198 -141.5t-126 -214t-44 -269zM770 1606l182 260q18 31 43 8q27 -14 9 -41l-185 -262q-18 -23 -43 -6q-24 16 -6 41z" />
<glyph unicode="&#xd4;" horiz-adv-x="1609" d="M119 717q0 158 48 293t137 233t216 154.5t285 56.5t285 -56.5t216 -154.5t137 -233.5t48 -292.5q0 -158 -48 -293t-137 -233.5t-216 -154.5t-285 -56t-285 56t-216 154.5t-137 233.5t-48 293zM180 717q0 -145 44 -269t126 -214.5t198 -141.5t257 -51t257 51t197.5 141.5 t126 214t44.5 269.5q0 145 -44.5 269t-126 214t-197.5 141.5t-257 51.5t-257 -51.5t-198 -141.5t-126 -214t-44 -269zM549 1569q-23 20 0 43l219 223q16 16 35 16t33 -14l225 -225q20 -23 0 -43q-23 -23 -43 0l-196 194q-18 18 -37 0l-193 -194q-23 -23 -43 0z" />
<glyph unicode="&#xd5;" horiz-adv-x="1609" d="M119 717q0 158 48 293t137 233t216 154.5t285 56.5t285 -56.5t216 -154.5t137 -233.5t48 -292.5q0 -158 -48 -293t-137 -233.5t-216 -154.5t-285 -56t-285 56t-216 154.5t-137 233.5t-48 293zM180 717q0 -145 44 -269t126 -214.5t198 -141.5t257 -51t257 51t197.5 141.5 t126 214t44.5 269.5q0 145 -44.5 269t-126 214t-197.5 141.5t-257 51.5t-257 -51.5t-198 -141.5t-126 -214t-44 -269zM549 1608q0 92 41 138t102 46q49 0 78 -23.5t50.5 -53.5t42 -53.5t55.5 -23.5q31 0 56.5 27t25.5 96q0 31 30 31q31 0 31 -31q0 -92 -41 -138t-102 -46 q-49 0 -78 23.5t-50.5 53t-42 53t-55.5 23.5q-31 0 -56.5 -26.5t-25.5 -95.5q0 -31 -30 -31q-31 0 -31 31z" />
<glyph unicode="&#xd6;" horiz-adv-x="1609" d="M119 717q0 158 48 293t137 233t216 154.5t285 56.5t285 -56.5t216 -154.5t137 -233.5t48 -292.5q0 -158 -48 -293t-137 -233.5t-216 -154.5t-285 -56t-285 56t-216 154.5t-137 233.5t-48 293zM180 717q0 -145 44 -269t126 -214.5t198 -141.5t257 -51t257 51t197.5 141.5 t126 214t44.5 269.5q0 145 -44.5 269t-126 214t-197.5 141.5t-257 51.5t-257 -51.5t-198 -141.5t-126 -214t-44 -269zM559 1659q0 35 23.5 58.5t58.5 23.5t58.5 -23.5t23.5 -58.5t-23.5 -58.5t-58.5 -23.5t-58.5 23.5t-23.5 58.5zM887 1659q0 35 23.5 58.5t58.5 23.5 t58.5 -23.5t23.5 -58.5t-24 -58.5t-58 -23.5q-35 0 -58.5 23.5t-23.5 58.5z" />
<glyph unicode="&#xd7;" horiz-adv-x="935" d="M160 977q-20 20 0 45q20 20 43 0l239 -240q20 -23 43 0l246 246q20 20 45 0q20 -23 0 -43l-248 -246q-23 -23 0 -43l240 -239q20 -23 0 -43q-23 -23 -43 0l-240 237q-23 20 -43 0l-231 -231q-23 -23 -43 0q-23 20 0 43l231 231q20 25 0 45z" />
<glyph unicode="&#xd8;" horiz-adv-x="1609" d="M119 717q0 158 48 293t137 233t216 154.5t285 56.5q109 0 202 -27.5t171 -76.5l45 67q10 14 19 15.5t22 -5.5q29 -18 8 -41l-45 -69q127 -100 195.5 -255t68.5 -345q0 -158 -48 -293t-137 -233.5t-216 -154.5t-285 -56q-111 0 -204 26.5t-171 75.5l-43 -68 q-16 -23 -41 -10q-29 14 -10 43l45 70q-125 100 -193.5 255t-68.5 345zM180 717q0 -174 61.5 -314.5t174.5 -232.5l729 1126q-72 47 -157 72t-183 25q-141 0 -257 -51.5t-198 -141.5t-126 -214t-44 -269zM465 135q145 -94 340 -94q141 0 257 51t197.5 141.5t126 214 t44.5 269.5q0 174 -61.5 314t-176.5 233z" />
<glyph unicode="&#xd9;" horiz-adv-x="1589" d="M57 1403q0 31 31 31h410q31 0 30 -31q0 -31 -30 -31h-144q-31 0 -30 -31v-829q0 -109 35.5 -196t99 -148.5t149.5 -94t187 -32.5q100 0 186 32.5t149.5 94t99.5 148.5t36 196v829q0 31 -31 31h-143q-31 0 -31 31t31 31h409q31 0 31 -31t-31 -31h-143q-31 0 -31 -31v-829 q0 -119 -40 -217t-110.5 -168t-169 -108.5t-212.5 -38.5q-115 0 -213.5 38.5t-169 108.5t-110.5 168t-40 217v829q0 31 -31 31h-143q-31 0 -31 31zM637 1812q-18 27 8 41q25 23 43 -8l183 -260q18 -25 -7 -41q-27 -16 -43 6z" />
<glyph unicode="&#xda;" horiz-adv-x="1589" d="M57 1403q0 31 31 31h410q31 0 30 -31q0 -31 -30 -31h-144q-31 0 -30 -31v-829q0 -109 35.5 -196t99 -148.5t149.5 -94t187 -32.5q100 0 186 32.5t149.5 94t99.5 148.5t36 196v829q0 31 -31 31h-143q-31 0 -31 31t31 31h409q31 0 31 -31t-31 -31h-143q-31 0 -31 -31v-829 q0 -119 -40 -217t-110.5 -168t-169 -108.5t-212.5 -38.5q-115 0 -213.5 38.5t-169 108.5t-110.5 168t-40 217v829q0 31 -31 31h-143q-31 0 -31 31zM760 1585l182 260q18 31 43 8q27 -14 9 -41l-185 -262q-18 -23 -43 -6q-24 16 -6 41z" />
<glyph unicode="&#xdb;" horiz-adv-x="1589" d="M57 1403q0 31 31 31h410q31 0 30 -31q0 -31 -30 -31h-144q-31 0 -30 -31v-829q0 -109 35.5 -196t99 -148.5t149.5 -94t187 -32.5q100 0 186 32.5t149.5 94t99.5 148.5t36 196v829q0 31 -31 31h-143q-31 0 -31 31t31 31h409q31 0 31 -31t-31 -31h-143q-31 0 -31 -31v-829 q0 -119 -40 -217t-110.5 -168t-169 -108.5t-212.5 -38.5q-115 0 -213.5 38.5t-169 108.5t-110.5 168t-40 217v829q0 31 -31 31h-143q-31 0 -31 31zM538 1569q-23 20 0 43l219 223q16 16 35 16t33 -14l225 -225q20 -23 0 -43q-23 -23 -43 0l-196 194q-18 18 -37 0l-193 -194 q-23 -23 -43 0z" />
<glyph unicode="&#xdc;" horiz-adv-x="1589" d="M57 1403q0 31 31 31h410q31 0 30 -31q0 -31 -30 -31h-144q-31 0 -30 -31v-829q0 -109 35.5 -196t99 -148.5t149.5 -94t187 -32.5q100 0 186 32.5t149.5 94t99.5 148.5t36 196v829q0 31 -31 31h-143q-31 0 -31 31t31 31h409q31 0 31 -31t-31 -31h-143q-31 0 -31 -31v-829 q0 -119 -40 -217t-110.5 -168t-169 -108.5t-212.5 -38.5q-115 0 -213.5 38.5t-169 108.5t-110.5 168t-40 217v829q0 31 -31 31h-143q-31 0 -31 31zM549 1659q0 35 23.5 58.5t58.5 23.5t58.5 -23.5t23.5 -58.5t-23.5 -58.5t-58.5 -23.5t-58.5 23.5t-23.5 58.5zM877 1659 q0 35 23.5 58.5t58.5 23.5t58.5 -23.5t23.5 -58.5t-24 -58.5t-58 -23.5q-35 0 -58.5 23.5t-23.5 58.5z" />
<glyph unicode="&#xdd;" horiz-adv-x="1284" d="M-20 1403q0 31 30 31h410q31 0 31 -31t-31 -31h-144q-16 0 -22 -9t2 -22l371 -647q14 -23 28 0l373 647q8 12 2 21.5t-22 9.5h-144q-31 0 -30 31q0 31 30 31h410q31 0 31 -31t-31 -31h-123q-16 0 -29.5 -9t-21.5 -22l-426 -739v-510q0 -31 31 -31h143q31 0 31 -30 q0 -31 -31 -31h-410q-31 0 -30 31q0 31 30 30h144q31 0 30 31v506l-428 743q-8 12 -21 21.5t-30 9.5h-123q-30 0 -30 31zM626 1585l182 260q18 31 43 8q27 -14 9 -41l-185 -262q-18 -23 -43 -6q-24 16 -6 41z" />
<glyph unicode="&#xde;" horiz-adv-x="1249" d="M94 31q0 31 31 30h143q31 0 31 31v1249q0 31 -31 31h-143q-31 0 -31 31t31 31h410q31 0 30 -31q0 -31 -30 -31h-144q-31 0 -31 -31v-102q0 -31 31 -31h215q135 0 239.5 -34.5t176.5 -99t109.5 -156t37.5 -201.5q0 -111 -37.5 -202t-109.5 -155.5t-176.5 -99.5t-239.5 -35 h-143q-31 0 -31 31t31 31h143q248 0 375 114.5t127 315.5t-127 315.5t-375 114.5h-215q-31 0 -31 -31v-1024q0 -31 31 -31h144q31 0 30 -30q0 -31 -30 -31h-410q-31 0 -31 31z" />
<glyph unicode="&#xdf;" horiz-adv-x="1312" d="M74 31q0 31 30 30h144q31 0 31 31v840q0 31 -31 31h-144q-31 0 -30 30q0 31 30 31h144q31 0 31 31v20q0 96 28.5 167t78.5 118t116.5 70.5t144.5 23.5q76 0 140.5 -21.5t110.5 -60.5t71.5 -91t25.5 -114q0 -74 -36.5 -114.5t-80.5 -71.5t-81 -61.5t-37 -79.5 q0 -57 37 -97.5t91 -75t117.5 -68.5t118 -79t91 -106.5t36.5 -147.5q0 -57 -24.5 -109.5t-69.5 -91t-109.5 -62t-144.5 -23.5q-147 0 -243.5 56t-165.5 148q-10 12 -9.5 25.5t13.5 21.5q23 16 39 -4q135 -186 366 -186q139 0 213 66.5t74 158.5q0 76 -37 130.5t-91 96.5 t-117.5 75.5t-118 72.5t-91.5 85t-37 114q0 66 37 103.5t81 68t81 64.5t37 91q0 100 -78 163t-209 63q-139 0 -223 -78t-84 -240v-1044q0 -31 -31 -31h-205q-30 0 -30 31z" />
<glyph unicode="&#xe0;" horiz-adv-x="1150" d="M86 266q0 92 42 144.5t108.5 81t151.5 44t169 34t160 48t127 89.5q0 57 -22.5 107t-63.5 88t-100.5 59.5t-133.5 21.5q-57 0 -104 -15.5t-86 -39t-67.5 -50t-47.5 -49.5q-18 -25 -43 -6q-25 18 -6 43q23 29 56.5 60.5t78.5 57.5t99.5 43t119.5 17q88 0 159 -26.5 t120 -72.5t75.5 -107.5t26.5 -130.5v-523q0 -70 25.5 -96.5t56.5 -26.5t56.5 27t25.5 96q0 31 31 31t30 -31q0 -92 -40.5 -138t-102.5 -46q-61 0 -102 46t-41 138v432q-51 -45 -123 -67.5t-148.5 -37.5t-153.5 -28.5t-137.5 -37t-97.5 -65.5t-37 -114q0 -100 74 -162.5 t213 -62.5q106 0 173 42t106 89q18 25 43 6q25 -18 6 -43q-45 -57 -125 -106t-203 -49q-170 0 -259 81.5t-89 204.5zM328 1443q-18 27 8 41q25 23 43 -8l183 -260q18 -25 -7 -41q-27 -16 -43 6z" />
<glyph unicode="&#xe1;" horiz-adv-x="1150" d="M86 266q0 92 42 144.5t108.5 81t151.5 44t169 34t160 48t127 89.5q0 57 -22.5 107t-63.5 88t-100.5 59.5t-133.5 21.5q-57 0 -104 -15.5t-86 -39t-67.5 -50t-47.5 -49.5q-18 -25 -43 -6q-25 18 -6 43q23 29 56.5 60.5t78.5 57.5t99.5 43t119.5 17q88 0 159 -26.5 t120 -72.5t75.5 -107.5t26.5 -130.5v-523q0 -70 25.5 -96.5t56.5 -26.5t56.5 27t25.5 96q0 31 31 31t30 -31q0 -92 -40.5 -138t-102.5 -46q-61 0 -102 46t-41 138v432q-51 -45 -123 -67.5t-148.5 -37.5t-153.5 -28.5t-137.5 -37t-97.5 -65.5t-37 -114q0 -100 74 -162.5 t213 -62.5q106 0 173 42t106 89q18 25 43 6q25 -18 6 -43q-45 -57 -125 -106t-203 -49q-170 0 -259 81.5t-89 204.5zM491 1216l182 260q18 31 43 8q27 -14 9 -41l-185 -262q-18 -23 -43 -6q-24 16 -6 41z" />
<glyph unicode="&#xe2;" horiz-adv-x="1150" d="M86 266q0 92 42 144.5t108.5 81t151.5 44t169 34t160 48t127 89.5q0 57 -22.5 107t-63.5 88t-100.5 59.5t-133.5 21.5q-57 0 -104 -15.5t-86 -39t-67.5 -50t-47.5 -49.5q-18 -25 -43 -6q-25 18 -6 43q23 29 56.5 60.5t78.5 57.5t99.5 43t119.5 17q88 0 159 -26.5 t120 -72.5t75.5 -107.5t26.5 -130.5v-523q0 -70 25.5 -96.5t56.5 -26.5t56.5 27t25.5 96q0 31 31 31t30 -31q0 -92 -40.5 -138t-102.5 -46q-61 0 -102 46t-41 138v432q-51 -45 -123 -67.5t-148.5 -37.5t-153.5 -28.5t-137.5 -37t-97.5 -65.5t-37 -114q0 -100 74 -162.5 t213 -62.5q106 0 173 42t106 89q18 25 43 6q25 -18 6 -43q-45 -57 -125 -106t-203 -49q-170 0 -259 81.5t-89 204.5zM270 1159q-23 20 0 43l219 223q16 16 35 16t33 -14l225 -225q20 -23 0 -43q-23 -23 -43 0l-196 194q-18 18 -37 0l-193 -194q-23 -23 -43 0z" />
<glyph unicode="&#xe3;" horiz-adv-x="1150" d="M86 266q0 92 42 144.5t108.5 81t151.5 44t169 34t160 48t127 89.5q0 57 -22.5 107t-63.5 88t-100.5 59.5t-133.5 21.5q-57 0 -104 -15.5t-86 -39t-67.5 -50t-47.5 -49.5q-18 -25 -43 -6q-25 18 -6 43q23 29 56.5 60.5t78.5 57.5t99.5 43t119.5 17q88 0 159 -26.5 t120 -72.5t75.5 -107.5t26.5 -130.5v-523q0 -70 25.5 -96.5t56.5 -26.5t56.5 27t25.5 96q0 31 31 31t30 -31q0 -92 -40.5 -138t-102.5 -46q-61 0 -102 46t-41 138v432q-51 -45 -123 -67.5t-148.5 -37.5t-153.5 -28.5t-137.5 -37t-97.5 -65.5t-37 -114q0 -100 74 -162.5 t213 -62.5q106 0 173 42t106 89q18 25 43 6q25 -18 6 -43q-45 -57 -125 -106t-203 -49q-170 0 -259 81.5t-89 204.5zM270 1198q0 92 41 138t102 46q49 0 78 -23.5t50.5 -53.5t42 -53.5t55.5 -23.5q31 0 56.5 27t25.5 96q0 31 30 31q31 0 31 -31q0 -92 -41 -138t-102 -46 q-49 0 -78 23.5t-50.5 53t-42 53t-55.5 23.5q-31 0 -56.5 -26.5t-25.5 -95.5q0 -31 -30 -31q-31 0 -31 31z" />
<glyph unicode="&#xe4;" horiz-adv-x="1150" d="M86 266q0 92 42 144.5t108.5 81t151.5 44t169 34t160 48t127 89.5q0 57 -22.5 107t-63.5 88t-100.5 59.5t-133.5 21.5q-57 0 -104 -15.5t-86 -39t-67.5 -50t-47.5 -49.5q-18 -25 -43 -6q-25 18 -6 43q23 29 56.5 60.5t78.5 57.5t99.5 43t119.5 17q88 0 159 -26.5 t120 -72.5t75.5 -107.5t26.5 -130.5v-523q0 -70 25.5 -96.5t56.5 -26.5t56.5 27t25.5 96q0 31 31 31t30 -31q0 -92 -40.5 -138t-102.5 -46q-61 0 -102 46t-41 138v432q-51 -45 -123 -67.5t-148.5 -37.5t-153.5 -28.5t-137.5 -37t-97.5 -65.5t-37 -114q0 -100 74 -162.5 t213 -62.5q106 0 173 42t106 89q18 25 43 6q25 -18 6 -43q-45 -57 -125 -106t-203 -49q-170 0 -259 81.5t-89 204.5zM301 1249q0 35 23.5 58.5t58.5 23.5t58.5 -23.5t23.5 -58.5t-23.5 -58.5t-58.5 -23.5t-58.5 23.5t-23.5 58.5zM629 1249q0 35 23.5 58.5t58.5 23.5 t58.5 -23.5t23.5 -58.5t-24 -58.5t-58 -23.5q-35 0 -58.5 23.5t-23.5 58.5z" />
<glyph unicode="&#xe5;" horiz-adv-x="1150" d="M86 266q0 92 42 144.5t108.5 81t151.5 44t169 34t160 48t127 89.5q0 57 -22.5 107t-63.5 88t-100.5 59.5t-133.5 21.5q-57 0 -104 -15.5t-86 -39t-67.5 -50t-47.5 -49.5q-18 -25 -43 -6q-25 18 -6 43q23 29 56.5 60.5t78.5 57.5t99.5 43t119.5 17q88 0 159 -26.5 t120 -72.5t75.5 -107.5t26.5 -130.5v-523q0 -70 25.5 -96.5t56.5 -26.5t56.5 27t25.5 96q0 31 31 31t30 -31q0 -92 -40.5 -138t-102.5 -46q-61 0 -102 46t-41 138v432q-51 -45 -123 -67.5t-148.5 -37.5t-153.5 -28.5t-137.5 -37t-97.5 -65.5t-37 -114q0 -100 74 -162.5 t213 -62.5q106 0 173 42t106 89q18 25 43 6q25 -18 6 -43q-45 -57 -125 -106t-203 -49q-170 0 -259 81.5t-89 204.5zM362 1311q0 70 45.5 117t118.5 47q74 0 119 -47.5t45 -116.5q0 -70 -45 -117t-119 -47t-119 47t-45 117zM424 1311q0 -47 27.5 -75t74.5 -28t75 28t28 75 t-28 74.5t-75 27.5t-74.5 -27.5t-27.5 -74.5z" />
<glyph unicode="&#xe6;" horiz-adv-x="1898" d="M86 266q0 92 42 144.5t108.5 81t151.5 44t169 34t160 48t127 89.5q0 57 -22.5 107t-63.5 88t-100.5 59.5t-133.5 21.5q-57 0 -104 -15.5t-86 -39t-67.5 -50t-47.5 -49.5q-18 -25 -43 -6q-25 18 -6 43q23 29 56.5 60.5t78.5 57.5t99.5 43t119.5 17q156 0 253 -76.5 t120 -191.5q59 125 170 196.5t258 71.5q106 0 195.5 -37.5t153 -100t98 -146.5t34.5 -176v-31q0 -61 -61 -61h-686q-31 0 -31 30q0 31 31 31h655q31 0 31 31q0 80 -31 152.5t-87 128t-133 87t-169 31.5t-169 -34t-133 -95t-87 -148.5t-31 -193.5q0 -109 31 -196t87 -148.5 t133 -94t169 -32.5q49 0 103.5 12.5t106.5 37t97 63.5t80 94q14 23 39 4q12 -8 12 -21.5t-8 -25.5q-70 -109 -184.5 -167t-245.5 -58q-109 0 -197 38.5t-151.5 108.5t-98 168t-34.5 217v104q-51 -45 -123 -67.5t-148.5 -37.5t-153.5 -28.5t-137.5 -37t-97.5 -65.5t-37 -114 q0 -100 74 -162.5t213 -62.5q106 0 173 42t106 89q18 25 43 6q25 -18 6 -43q-45 -57 -125 -106t-203 -49q-170 0 -259 81.5t-89 204.5z" />
<glyph unicode="&#xe7;" horiz-adv-x="1146" d="M106 512q0 119 35 217t96.5 168t145.5 108.5t184 38.5q61 0 115.5 -15t100.5 -38.5t81 -50.5t60 -49q18 -18 25 -7t7 27v82q0 31 31 31t31 -31v-327q0 -31 -31 -31t-31 31v102q-37 43 -77.5 82t-89 68.5t-103.5 47t-119 17.5q-84 0 -157.5 -34t-127 -95t-84 -148.5 t-30.5 -193.5q0 -109 30.5 -196t86 -148.5t134.5 -94t177 -32.5q111 0 216.5 48t172.5 159q16 23 39 4q12 -8 12 -21.5t-8 -25.5q-70 -111 -180.5 -168t-251.5 -57q-113 0 -204 38.5t-154.5 108.5t-97.5 168t-34 217zM530 -338q0 31 31 31q84 0 113.5 25.5t29.5 56.5 t-24.5 56.5t-77.5 25.5h-31q-31 0 -31 30v113q0 31 31 31t31 -31v-82q78 0 121 -41t43 -102t-48.5 -102.5t-156.5 -41.5q-31 0 -31 31z" />
<glyph unicode="&#xe8;" horiz-adv-x="1161" d="M106 512q0 119 35 217t98.5 168t151.5 108.5t197 38.5q106 0 195 -37.5t152.5 -100t98.5 -146.5t35 -176v-31q0 -61 -61 -61h-686q-31 0 -31 30q0 31 31 31h655q31 0 31 31q0 80 -31 152.5t-87 128t-133 87t-169 31.5t-169 -34t-133.5 -95t-87 -148.5t-30.5 -193.5 q0 -109 30.5 -196t87 -148.5t133.5 -94t169 -32.5q49 0 103 12.5t106.5 37t97.5 63.5t80 94q14 23 39 4q12 -8 12 -21.5t-8 -25.5q-70 -109 -184.5 -167t-245.5 -58q-109 0 -197 38.5t-151.5 108.5t-98.5 168t-35 217zM379 1443q-18 27 8 41q25 23 43 -8l183 -260 q18 -25 -7 -41q-27 -16 -43 6z" />
<glyph unicode="&#xe9;" horiz-adv-x="1161" d="M106 512q0 119 35 217t98.5 168t151.5 108.5t197 38.5q106 0 195 -37.5t152.5 -100t98.5 -146.5t35 -176v-31q0 -61 -61 -61h-686q-31 0 -31 30q0 31 31 31h655q31 0 31 31q0 80 -31 152.5t-87 128t-133 87t-169 31.5t-169 -34t-133.5 -95t-87 -148.5t-30.5 -193.5 q0 -109 30.5 -196t87 -148.5t133.5 -94t169 -32.5q49 0 103 12.5t106.5 37t97.5 63.5t80 94q14 23 39 4q12 -8 12 -21.5t-8 -25.5q-70 -109 -184.5 -167t-245.5 -58q-109 0 -197 38.5t-151.5 108.5t-98.5 168t-35 217zM563 1216l182 260q18 31 43 8q27 -14 9 -41l-185 -262 q-18 -23 -43 -6q-24 16 -6 41z" />
<glyph unicode="&#xea;" horiz-adv-x="1161" d="M106 512q0 119 35 217t98.5 168t151.5 108.5t197 38.5q106 0 195 -37.5t152.5 -100t98.5 -146.5t35 -176v-31q0 -61 -61 -61h-686q-31 0 -31 30q0 31 31 31h655q31 0 31 31q0 80 -31 152.5t-87 128t-133 87t-169 31.5t-169 -34t-133.5 -95t-87 -148.5t-30.5 -193.5 q0 -109 30.5 -196t87 -148.5t133.5 -94t169 -32.5q49 0 103 12.5t106.5 37t97.5 63.5t80 94q14 23 39 4q12 -8 12 -21.5t-8 -25.5q-70 -109 -184.5 -167t-245.5 -58q-109 0 -197 38.5t-151.5 108.5t-98.5 168t-35 217zM321 1159q-23 20 0 43l219 223q16 16 35 16t33 -14 l225 -225q20 -23 0 -43q-23 -23 -43 0l-196 194q-18 18 -37 0l-193 -194q-23 -23 -43 0z" />
<glyph unicode="&#xeb;" horiz-adv-x="1161" d="M106 512q0 119 35 217t98.5 168t151.5 108.5t197 38.5q106 0 195 -37.5t152.5 -100t98.5 -146.5t35 -176v-31q0 -61 -61 -61h-686q-31 0 -31 30q0 31 31 31h655q31 0 31 31q0 80 -31 152.5t-87 128t-133 87t-169 31.5t-169 -34t-133.5 -95t-87 -148.5t-30.5 -193.5 q0 -109 30.5 -196t87 -148.5t133.5 -94t169 -32.5q49 0 103 12.5t106.5 37t97.5 63.5t80 94q14 23 39 4q12 -8 12 -21.5t-8 -25.5q-70 -109 -184.5 -167t-245.5 -58q-109 0 -197 38.5t-151.5 108.5t-98.5 168t-35 217zM332 1249q0 35 23.5 58.5t58.5 23.5t58.5 -23.5 t23.5 -58.5t-23.5 -58.5t-58.5 -23.5t-58.5 23.5t-23.5 58.5zM660 1249q0 35 23.5 58.5t58.5 23.5t58.5 -23.5t23.5 -58.5t-24 -58.5t-58 -23.5q-35 0 -58.5 23.5t-23.5 58.5z" />
<glyph unicode="&#xec;" horiz-adv-x="585" d="M76 31q0 31 30 30h144q31 0 31 31v840q0 31 -31 31h-144q-31 0 -30 30q0 31 30 31h205q31 0 31 -31v-901q0 -31 31 -31h143q31 0 31 -30q0 -31 -31 -31h-410q-30 0 -30 31zM92 1444q-18 27 8 41q25 23 43 -8l183 -260q18 -25 -7 -41q-27 -16 -43 6z" />
<glyph unicode="&#xed;" horiz-adv-x="585" d="M76 31q0 31 30 30h144q31 0 31 31v840q0 31 -31 31h-144q-31 0 -30 30q0 31 30 31h205q31 0 31 -31v-901q0 -31 31 -31h143q31 0 31 -30q0 -31 -31 -31h-410q-30 0 -30 31zM256 1217l182 260q18 31 43 8q27 -14 8 -41l-184 -262q-18 -23 -43 -6q-24 16 -6 41z" />
<glyph unicode="&#xee;" horiz-adv-x="585" d="M35 1159q-23 20 0 43l219 223q16 16 34.5 16.5t33.5 -14.5l225 -225q20 -23 0 -43q-23 -23 -43 0l-197 195q-18 18 -37 0l-192 -195q-23 -23 -43 0zM76 31q0 31 30 30h144q31 0 31 31v840q0 31 -31 31h-144q-31 0 -30 30q0 31 30 31h205q31 0 31 -31v-901q0 -31 31 -31 h143q31 0 31 -30q0 -31 -31 -31h-410q-30 0 -30 31z" />
<glyph unicode="&#xef;" horiz-adv-x="585" d="M45 1249q0 35 23.5 58.5t58.5 23.5t58.5 -23.5t23.5 -58.5t-23.5 -58.5t-58.5 -23.5t-58.5 23.5t-23.5 58.5zM76 31q0 31 30 30h144q31 0 31 31v840q0 31 -31 31h-144q-31 0 -30 30q0 31 30 31h205q31 0 31 -31v-901q0 -31 31 -31h143q31 0 31 -30q0 -31 -31 -31h-410 q-30 0 -30 31zM373 1249q0 35 23.5 58.5t58.5 23.5t58.5 -23.5t23.5 -58.5t-24 -58.5t-58 -23.5q-35 0 -58.5 23.5t-23.5 58.5z" />
<glyph unicode="&#xf0;" horiz-adv-x="1284" d="M111 461q0 223 131 352t370 129q70 0 141.5 -13.5t125.5 -33.5q29 -10 18 -39q-12 -31 -41 -18q-23 8 -53.5 16t-64 14t-66.5 9.5t-60 3.5q-217 0 -328.5 -109.5t-111.5 -310.5q0 -92 32 -169t89 -133.5t138 -87t181 -30.5t184.5 38t146 110.5t96 179t34.5 245.5 q0 201 -74.5 368t-197.5 284q-25 18 -43 -2l-115 -136q-18 -25 -43 -4q-23 23 -2 45l113 134q10 10 9 20t-9 14q-92 66 -196.5 102t-219.5 36q-31 0 -31 30q0 31 31 31q129 0 240.5 -39t207.5 -106q27 -20 45 4l127 151q16 20 43 4q23 -20 7 -43l-127 -151q-18 -23 4 -43 q137 -133 215 -316.5t78 -382.5q0 -141 -37 -258.5t-105.5 -200.5t-165 -129t-215.5 -46q-111 0 -204 35.5t-158.5 100t-102 153t-36.5 192.5z" />
<glyph unicode="&#xf1;" horiz-adv-x="1368" d="M74 31q0 31 30 30h144q31 0 31 31v840q0 31 -31 31h-144q-31 0 -30 30q0 31 30 31h205q31 0 31 -31v-114q0 -16 7 -28.5t26 7.5q18 20 50 52t77 61.5t102 51t127 21.5q193 0 301.5 -104t108.5 -305v-543q0 -31 30 -31h144q31 0 30 -30q0 -31 -30 -31h-410q-31 0 -31 31 t31 30h144q31 0 30 31v543q0 178 -93 263t-255 85q-92 0 -164.5 -45t-122.5 -98q-59 -63 -102 -144v-604q0 -31 31 -31h143q31 0 31 -30q0 -31 -31 -31h-410q-30 0 -30 31zM453 1198q0 92 41 138t102 46q49 0 78 -23.5t50.5 -53.5t42 -53.5t55.5 -23.5q31 0 56.5 27t25.5 96 q0 31 30 31q31 0 31 -31q0 -92 -41 -138t-102 -46q-49 0 -78 23.5t-50.5 53t-42 53t-55.5 23.5q-31 0 -56.5 -26.5t-25.5 -95.5q0 -31 -30 -31q-31 0 -31 31z" />
<glyph unicode="&#xf2;" d="M104 512q0 119 37 217t102.5 168t159 108.5t203.5 38.5q111 0 204 -38.5t158.5 -108.5t102.5 -168t37 -217t-37 -217t-102.5 -168t-158.5 -108.5t-204 -38.5t-204 38.5t-158.5 108.5t-102.5 168t-37 217zM166 512q0 -109 31.5 -196t89 -148.5t138.5 -94t181 -32.5 t181 32.5t138.5 94t89.5 148.5t32 196q0 106 -32 193.5t-89.5 148.5t-138 95t-181.5 34q-100 0 -181 -34t-138.5 -95t-89 -148.5t-31.5 -193.5zM407 1443q-18 27 8 41q25 23 43 -8l183 -260q18 -25 -7 -41q-27 -16 -43 6z" />
<glyph unicode="&#xf3;" d="M104 512q0 119 37 217t102.5 168t159 108.5t203.5 38.5q111 0 204 -38.5t158.5 -108.5t102.5 -168t37 -217t-37 -217t-102.5 -168t-158.5 -108.5t-204 -38.5t-204 38.5t-158.5 108.5t-102.5 168t-37 217zM166 512q0 -109 31.5 -196t89 -148.5t138.5 -94t181 -32.5 t181 32.5t138.5 94t89.5 148.5t32 196q0 106 -32 193.5t-89.5 148.5t-138 95t-181.5 34q-100 0 -181 -34t-138.5 -95t-89 -148.5t-31.5 -193.5zM571 1216l182 260q18 31 43 8q27 -14 9 -41l-185 -262q-18 -23 -43 -6q-24 16 -6 41z" />
<glyph unicode="&#xf4;" d="M104 512q0 119 37 217t102.5 168t159 108.5t203.5 38.5q111 0 204 -38.5t158.5 -108.5t102.5 -168t37 -217t-37 -217t-102.5 -168t-158.5 -108.5t-204 -38.5t-204 38.5t-158.5 108.5t-102.5 168t-37 217zM166 512q0 -109 31.5 -196t89 -148.5t138.5 -94t181 -32.5 t181 32.5t138.5 94t89.5 148.5t32 196q0 106 -32 193.5t-89.5 148.5t-138 95t-181.5 34q-100 0 -181 -34t-138.5 -95t-89 -148.5t-31.5 -193.5zM350 1159q-23 20 0 43l219 223q16 16 35 16t33 -14l225 -225q20 -23 0 -43q-23 -23 -43 0l-196 194q-18 18 -37 0l-193 -194 q-23 -23 -43 0z" />
<glyph unicode="&#xf5;" d="M104 512q0 119 37 217t102.5 168t159 108.5t203.5 38.5q111 0 204 -38.5t158.5 -108.5t102.5 -168t37 -217t-37 -217t-102.5 -168t-158.5 -108.5t-204 -38.5t-204 38.5t-158.5 108.5t-102.5 168t-37 217zM166 512q0 -109 31.5 -196t89 -148.5t138.5 -94t181 -32.5 t181 32.5t138.5 94t89.5 148.5t32 196q0 106 -32 193.5t-89.5 148.5t-138 95t-181.5 34q-100 0 -181 -34t-138.5 -95t-89 -148.5t-31.5 -193.5zM350 1198q0 92 41 138t102 46q49 0 78 -23.5t50.5 -53.5t42 -53.5t55.5 -23.5q31 0 56.5 27t25.5 96q0 31 30 31q31 0 31 -31 q0 -92 -41 -138t-102 -46q-49 0 -78 23.5t-50.5 53t-42 53t-55.5 23.5q-31 0 -56.5 -26.5t-25.5 -95.5q0 -31 -30 -31q-31 0 -31 31z" />
<glyph unicode="&#xf6;" d="M104 512q0 119 37 217t102.5 168t159 108.5t203.5 38.5q111 0 204 -38.5t158.5 -108.5t102.5 -168t37 -217t-37 -217t-102.5 -168t-158.5 -108.5t-204 -38.5t-204 38.5t-158.5 108.5t-102.5 168t-37 217zM166 512q0 -109 31.5 -196t89 -148.5t138.5 -94t181 -32.5 t181 32.5t138.5 94t89.5 148.5t32 196q0 106 -32 193.5t-89.5 148.5t-138 95t-181.5 34q-100 0 -181 -34t-138.5 -95t-89 -148.5t-31.5 -193.5zM360 1249q0 35 23.5 58.5t58.5 23.5t58.5 -23.5t23.5 -58.5t-23.5 -58.5t-58.5 -23.5t-58.5 23.5t-23.5 58.5zM688 1249 q0 35 23.5 58.5t58.5 23.5t58.5 -23.5t23.5 -58.5t-24 -58.5t-58 -23.5q-35 0 -58.5 23.5t-23.5 58.5z" />
<glyph unicode="&#xf7;" horiz-adv-x="1189" d="M164 655q0 31 31 31h798q31 0 31 -31t-31 -30h-798q-31 -1 -31 30zM481 328q0 47 28 74.5t75 27.5t74.5 -27.5t27.5 -74.5t-27.5 -75t-74.5 -28t-75 28t-28 75zM481 983q0 47 28 74.5t75 27.5t74.5 -27.5t27.5 -74.5t-27.5 -74.5t-74.5 -27.5t-75 27.5t-28 74.5z" />
<glyph unicode="&#xf8;" d="M104 512q0 119 37 217t102.5 168t159 108.5t203.5 38.5q74 0 139.5 -17t122.5 -50l35 53q10 14 19.5 15.5t21.5 -5.5q29 -18 8 -41l-37 -55q92 -72 142.5 -181.5t50.5 -250.5q0 -119 -37 -217t-102.5 -168t-158.5 -108.5t-204 -38.5q-76 0 -142.5 17t-121.5 50l-35 -53 q-16 -23 -41 -10q-29 14 -10 43l35 55q-88 70 -137.5 179.5t-49.5 250.5zM166 512q0 -125 41 -221t117 -158l512 793q-102 57 -230 57q-100 0 -181 -34t-138.5 -95t-89 -148.5t-31.5 -193.5zM375 98q102 -57 231 -57q100 0 181 32.5t138.5 94t89.5 148.5t32 196 q0 127 -42 224.5t-120 156.5z" />
<glyph unicode="&#xf9;" horiz-adv-x="1331" d="M23 993q0 31 30 31h205q31 0 31 -31v-604q0 -178 93 -263t255 -85q92 0 163.5 45t123.5 98q57 63 102 144v604q0 31 -31 31h-143q-31 0 -31 30q0 31 31 31h205q31 0 30 -31v-901q0 -31 31 -31h144q31 0 30 -30q0 -31 -30 -31h-205q-31 0 -31 31v114q0 16 -7 28.5 t-26 -7.5q-18 -20 -50 -52t-77 -61.5t-102 -51t-127 -21.5q-193 0 -301.5 104t-108.5 305v543q0 31 -30 31h-144q-30 -1 -30 30zM459 1405q-18 27 8 41q25 23 43 -8l183 -260q18 -25 -7 -41q-27 -16 -43 6z" />
<glyph unicode="&#xfa;" horiz-adv-x="1331" d="M23 993q0 31 30 31h205q31 0 31 -31v-604q0 -178 93 -263t255 -85q92 0 163.5 45t123.5 98q57 63 102 144v604q0 31 -31 31h-143q-31 0 -31 30q0 31 31 31h205q31 0 30 -31v-901q0 -31 31 -31h144q31 0 30 -30q0 -31 -30 -31h-205q-31 0 -31 31v114q0 16 -7 28.5 t-26 -7.5q-18 -20 -50 -52t-77 -61.5t-102 -51t-127 -21.5q-193 0 -301.5 104t-108.5 305v543q0 31 -30 31h-144q-30 -1 -30 30zM561 1178l182 260q18 31 43 8q27 -14 9 -41l-185 -262q-18 -23 -43 -6q-24 16 -6 41z" />
<glyph unicode="&#xfb;" horiz-adv-x="1331" d="M23 993q0 31 30 31h205q31 0 31 -31v-604q0 -178 93 -263t255 -85q92 0 163.5 45t123.5 98q57 63 102 144v604q0 31 -31 31h-143q-31 0 -31 30q0 31 31 31h205q31 0 30 -31v-901q0 -31 31 -31h144q31 0 30 -30q0 -31 -30 -31h-205q-31 0 -31 31v114q0 16 -7 28.5 t-26 -7.5q-18 -20 -50 -52t-77 -61.5t-102 -51t-127 -21.5q-193 0 -301.5 104t-108.5 305v543q0 31 -30 31h-144q-30 -1 -30 30zM381 1159q-23 20 0 43l219 223q16 16 35 16t33 -14l225 -225q20 -23 0 -43q-23 -23 -43 0l-196 194q-18 18 -37 0l-193 -194q-23 -23 -43 0z " />
<glyph unicode="&#xfc;" horiz-adv-x="1331" d="M23 993q0 31 30 31h205q31 0 31 -31v-604q0 -178 93 -263t255 -85q92 0 163.5 45t123.5 98q57 63 102 144v604q0 31 -31 31h-143q-31 0 -31 30q0 31 31 31h205q31 0 30 -31v-901q0 -31 31 -31h144q31 0 30 -30q0 -31 -30 -31h-205q-31 0 -31 31v114q0 16 -7 28.5 t-26 -7.5q-18 -20 -50 -52t-77 -61.5t-102 -51t-127 -21.5q-193 0 -301.5 104t-108.5 305v543q0 31 -30 31h-144q-30 -1 -30 30zM391 1249q0 35 23.5 58.5t58.5 23.5t58.5 -23.5t23.5 -58.5t-23.5 -58.5t-58.5 -23.5t-58.5 23.5t-23.5 58.5zM719 1249q0 35 23.5 58.5 t58.5 23.5t58.5 -23.5t23.5 -58.5t-24 -58.5t-58 -23.5q-35 0 -58.5 23.5t-23.5 58.5z" />
<glyph unicode="&#xfd;" horiz-adv-x="1263" d="M-2 993q0 31 31 31h409q31 0 31 -31t-31 -30h-147q-35 0 -21 -31l387 -809q4 -10 11.5 -10t11.5 10l313 809q14 31 -20 31h-148q-31 0 -30 30q0 31 30 31h410q31 0 31 -31t-31 -30h-133q-27 0 -41 -31l-389 -1004q-33 -84 -67 -150.5t-72.5 -112.5t-87 -70.5 t-109.5 -24.5q-100 0 -168 64.5t-68 181.5q0 31 31 30q31 0 31 -30q0 -86 52 -135.5t122 -49.5q92 0 152.5 75t117.5 222l21 54q8 27 0 49l-424 901q-14 31 -41 31h-133q-31 -1 -31 30zM596 1178l182 260q18 31 43 8q27 -14 9 -41l-185 -262q-18 -23 -43 -6q-24 16 -6 41z " />
<glyph unicode="&#xfe;" horiz-adv-x="1228" d="M-6 -379q0 31 31 31h143q31 0 31 31v1658q0 31 -31 31h-143q-31 0 -31 31t31 31h204q31 0 31 -31v-524q0 -16 7 -28.5t26 7.5q18 20 50 52t77 61.5t102.5 51t126.5 21.5q106 0 193.5 -35.5t149 -103t95 -167t33.5 -226.5t-32.5 -226.5t-92 -167t-142.5 -103t-183 -35.5 q-109 0 -185.5 49t-122.5 106q-18 25 7 43t43 -6q39 -47 102.5 -89t155.5 -42q84 0 155.5 30.5t123.5 90t81 147.5t29 203t-30 203t-83 147.5t-129 90t-168 30.5t-164.5 -45t-122.5 -98q-59 -63 -102 -144v-1013q0 -31 31 -31h143q31 0 31 -31t-31 -31h-409q-31 0 -31 31z " />
<glyph unicode="&#xff;" horiz-adv-x="1263" d="M-2 993q0 31 31 31h409q31 0 31 -31t-31 -30h-147q-35 0 -21 -31l387 -809q4 -10 11.5 -10t11.5 10l313 809q14 31 -20 31h-148q-31 0 -30 30q0 31 30 31h410q31 0 31 -31t-31 -30h-133q-27 0 -41 -31l-389 -1004q-33 -84 -67 -150.5t-72.5 -112.5t-87 -70.5 t-109.5 -24.5q-100 0 -168 64.5t-68 181.5q0 31 31 30q31 0 31 -30q0 -86 52 -135.5t122 -49.5q92 0 152.5 75t117.5 222l21 54q8 27 0 49l-424 901q-14 31 -41 31h-133q-31 -1 -31 30zM375 1229q0 35 23.5 58.5t58.5 23.5t58.5 -23.5t23.5 -58.5t-23.5 -58.5t-58.5 -23.5 t-58.5 23.5t-23.5 58.5zM703 1229q0 35 23.5 58.5t58.5 23.5t58.5 -23.5t23.5 -58.5t-24 -58.5t-58 -23.5q-35 0 -58.5 23.5t-23.5 58.5z" />
<glyph unicode="&#x152;" horiz-adv-x="1890" d="M119 717q0 150 48 280.5t137 227t216 153t285 56.5h932q31 0 30 -31v-246q0 -31 -30 -31q-31 0 -31 31v184q0 31 -31 31h-645q-31 0 -31 -31v-553q0 -31 31 -30h461q31 0 31 30v103q0 31 30 31q31 0 31 -31v-328q0 -31 -31 -31t-30 31v103q0 31 -31 30h-461 q-31 0 -31 -30v-574q0 -31 31 -31h666q31 0 30 31v184q0 31 31 31t31 -31v-245q0 -31 -31 -31h-952q-158 0 -285 56.5t-216 152.5t-137 227t-48 281zM180 717q0 -139 44 -258t126 -208t198 -139.5t257 -50.5h102q31 0 31 31v1249q0 31 -31 31h-102q-141 0 -257 -50 t-198 -139t-126 -209t-44 -257z" />
<glyph unicode="&#x153;" horiz-adv-x="1875" d="M104 512q0 119 37 217t102.5 168t159 108.5t203.5 38.5q111 0 200 -36.5t155 -102.5q63 66 150 102.5t192 36.5q106 0 195 -37.5t152.5 -100t98.5 -146.5t35 -176v-31q0 -61 -62 -61h-686q-31 0 -30 30q0 31 30 31h656q31 0 30 31q0 80 -30.5 152.5t-87 128t-133 87 t-168.5 31.5t-169 -34t-133.5 -95t-87 -148.5t-30.5 -193.5q0 -109 30.5 -196t87 -148.5t133 -94t169.5 -32.5q49 0 103 12.5t106.5 37t97.5 63.5t80 94q14 23 39 4q12 -8 12 -21.5t-8 -25.5q-70 -109 -184.5 -167t-245.5 -58q-213 0 -342 139q-135 -139 -355 -139 q-111 0 -204 38.5t-158.5 108.5t-102.5 168t-37 217zM166 512q0 -109 31.5 -196t89 -148.5t138.5 -94t181 -32.5q98 0 178 31.5t138 91.5q-100 137 -101 348q0 209 101 346q-57 59 -137 92t-179 33q-100 0 -181 -34t-138.5 -95t-89 -148.5t-31.5 -193.5z" />
<glyph unicode="&#x178;" horiz-adv-x="1284" d="M-20 1403q0 31 30 31h410q31 0 31 -31t-31 -31h-144q-16 0 -22 -9t2 -22l371 -647q14 -23 28 0l373 647q8 12 2 21.5t-22 9.5h-144q-31 0 -30 31q0 31 30 31h410q31 0 31 -31t-31 -31h-123q-16 0 -29.5 -9t-21.5 -22l-426 -739v-510q0 -31 31 -31h143q31 0 31 -30 q0 -31 -31 -31h-410q-31 0 -30 31q0 31 30 30h144q31 0 30 31v506l-428 743q-8 12 -21 21.5t-30 9.5h-123q-30 0 -30 31zM395 1659q0 35 23.5 58.5t58.5 23.5t58.5 -23.5t23.5 -58.5t-23.5 -58.5t-58.5 -23.5t-58.5 23.5t-23.5 58.5zM723 1659q0 35 23.5 58.5t58.5 23.5 t58.5 -23.5t23.5 -58.5t-24 -58.5t-58 -23.5q-35 0 -58.5 23.5t-23.5 58.5z" />
<glyph unicode="&#x2c6;" horiz-adv-x="536" d="M12 1139q-23 20 0 43l219 223q16 16 35 16t33 -14l225 -225q20 -23 0 -43q-23 -23 -43 0l-196 194q-18 18 -37 0l-193 -194q-23 -23 -43 0z" />
<glyph unicode="&#x2dc;" horiz-adv-x="512" d="M0 1178q0 92 41 138t102 46q49 0 78 -23.5t50.5 -53.5t42 -53.5t55.5 -23.5q31 0 56.5 27t25.5 96q0 31 30 31q31 0 31 -31q0 -92 -41 -138t-102 -46q-49 0 -78 23.5t-50.5 53t-42 53t-55.5 23.5q-31 0 -56.5 -26.5t-25.5 -95.5q0 -31 -30 -31q-31 0 -31 31z" />
<glyph unicode="&#x2000;" horiz-adv-x="940" />
<glyph unicode="&#x2001;" horiz-adv-x="1882" />
<glyph unicode="&#x2002;" horiz-adv-x="940" />
<glyph unicode="&#x2003;" horiz-adv-x="1882" />
<glyph unicode="&#x2004;" horiz-adv-x="626" />
<glyph unicode="&#x2005;" horiz-adv-x="468" />
<glyph unicode="&#x2006;" horiz-adv-x="313" />
<glyph unicode="&#x2007;" horiz-adv-x="313" />
<glyph unicode="&#x2008;" horiz-adv-x="233" />
<glyph unicode="&#x2009;" horiz-adv-x="374" />
<glyph unicode="&#x200a;" horiz-adv-x="104" />
<glyph unicode="&#x2010;" horiz-adv-x="1171" d="M156 655q0 31 30 31h799q31 0 31 -31t-31 -30h-799q-30 -1 -30 30z" />
<glyph unicode="&#x2011;" horiz-adv-x="1171" d="M156 655q0 31 30 31h799q31 0 31 -31t-31 -30h-799q-30 -1 -30 30z" />
<glyph unicode="&#x2012;" horiz-adv-x="1171" d="M156 655q0 31 30 31h799q31 0 31 -31t-31 -30h-799q-30 -1 -30 30z" />
<glyph unicode="&#x2013;" horiz-adv-x="1335" d="M156 655q0 31 30 31h963q31 0 31 -31t-31 -30h-963q-30 -1 -30 30z" />
<glyph unicode="&#x2014;" horiz-adv-x="1703" d="M156 655q0 31 30 31h1332q31 0 30 -31q0 -31 -30 -30h-1332q-30 -1 -30 30z" />
<glyph unicode="&#x2018;" horiz-adv-x="468" d="M131 1128v31q0 109 42 182.5t112 104.5q29 16 45 -8q16 -27 -13 -39q-59 -27 -91.5 -77t-32.5 -112v-16q8 4 18 10t33 6q39 0 65.5 -27.5t26.5 -74.5t-27.5 -74.5t-75.5 -27.5q-47 0 -74.5 30.5t-27.5 91.5z" />
<glyph unicode="&#x2019;" horiz-adv-x="466" d="M145 1352q0 47 28 74.5t75 27.5t74.5 -30.5t27.5 -92.5v-31q0 -109 -42 -182.5t-111 -103.5q-29 -16 -45 8q-16 27 12 39q59 27 92 77t33 111v17q-8 -4 -18.5 -10.5t-32.5 -6.5q-39 0 -66 28t-27 75z" />
<glyph unicode="&#x201a;" horiz-adv-x="495" d="M145 82q0 47 28 74.5t75 27.5t74.5 -30.5t27.5 -92.5v-30q0 -109 -42 -182.5t-111 -104.5q-29 -16 -45 8q-16 27 12 39q59 27 92 77t33 112v16q-8 -4 -18.5 -10t-32.5 -6q-39 0 -66 27.5t-27 74.5z" />
<glyph unicode="&#x201c;" horiz-adv-x="755" d="M131 1128v31q0 109 42 182.5t112 104.5q29 16 45 -8q16 -27 -13 -39q-59 -27 -91.5 -77t-32.5 -112v-16q8 4 18 10t33 6q39 0 65.5 -27.5t26.5 -74.5t-27.5 -74.5t-75.5 -27.5q-47 0 -74.5 30.5t-27.5 91.5zM418 1128v31q0 109 42 182.5t111 104.5q29 16 45 -8 q16 -27 -12 -39q-59 -27 -92 -77t-33 -112v-16q8 4 18.5 10t32.5 6q39 0 66 -27.5t27 -74.5t-28 -74.5t-75 -27.5t-74.5 30.5t-27.5 91.5z" />
<glyph unicode="&#x201d;" horiz-adv-x="753" d="M145 1352q0 47 28 74.5t75 27.5t74.5 -30.5t27.5 -92.5v-31q0 -109 -42 -182.5t-111 -103.5q-29 -16 -45 8q-16 27 12 39q59 27 92 77t33 111v17q-8 -4 -18.5 -10.5t-32.5 -6.5q-39 0 -66 28t-27 75zM432 1352q0 47 27.5 74.5t75.5 27.5q47 0 74.5 -30.5t27.5 -92.5v-31 q0 -109 -42 -182.5t-112 -103.5q-29 -16 -45 8q-16 27 13 39q59 27 91.5 77t32.5 111v17q-8 -4 -18 -10.5t-33 -6.5q-39 0 -65.5 28t-26.5 75z" />
<glyph unicode="&#x201e;" horiz-adv-x="782" d="M145 82q0 47 28 74.5t75 27.5t74.5 -30.5t27.5 -92.5v-30q0 -109 -42 -182.5t-111 -104.5q-29 -16 -45 8q-16 27 12 39q59 27 92 77t33 112v16q-8 -4 -18.5 -10t-32.5 -6q-39 0 -66 27.5t-27 74.5zM432 82q0 47 27.5 74.5t75.5 27.5q47 0 74.5 -30.5t27.5 -92.5v-30 q0 -109 -42 -182.5t-112 -104.5q-29 -16 -45 8q-16 27 13 39q59 27 91.5 77t32.5 112v16q-8 -4 -18 -10t-33 -6q-39 0 -65.5 27.5t-26.5 74.5z" />
<glyph unicode="&#x2022;" horiz-adv-x="704" d="M127 717q0 47 17.5 88t48 71.5t71.5 48t88 17.5t88 -17.5t72 -48t48.5 -71.5t17.5 -88t-17.5 -88t-48.5 -72t-72 -48t-88 -17t-88 17t-71.5 48t-48 72t-17.5 88z" />
<glyph unicode="&#x2026;" horiz-adv-x="1355" d="M145 82q0 47 28 74.5t75 27.5t74.5 -27.5t27.5 -74.5t-27.5 -74.5t-74.5 -27.5t-75 27.5t-28 74.5zM575 82q0 47 28 74.5t75 27.5t74.5 -27.5t27.5 -74.5t-27.5 -74.5t-74.5 -27.5t-75 27.5t-28 74.5zM1006 82q0 47 27.5 74.5t74.5 27.5t74.5 -27.5t27.5 -74.5 t-27.5 -74.5t-74.5 -27.5t-74.5 27.5t-27.5 74.5z" />
<glyph unicode="&#x202f;" horiz-adv-x="374" />
<glyph unicode="&#x2039;" horiz-adv-x="729" d="M82 510q0 18 14 33l473 471q20 20 43 0q20 -23 0 -43l-442 -443q-18 -18 0 -36l438 -439q20 -23 0 -43q-23 -23 -43 0l-467 465q-16 17 -16 35z" />
<glyph unicode="&#x203a;" horiz-adv-x="729" d="M117 971q-23 20 0 43q20 20 43 0l473 -471q14 -14 14 -32.5t-16 -35.5l-467 -465q-23 -23 -43 0q-23 20 0 43l438 439q18 18 0 36z" />
<glyph unicode="&#x205f;" horiz-adv-x="468" />
<glyph unicode="&#x20ac;" horiz-adv-x="1622" d="M74 563q0 31 30 31h183q-4 29 -6 59.5t-2 63.5q0 31 2 61.5t6 61.5h-142q-31 0 -30 30q0 31 30 31h152q25 121 81 222.5t140 175t191.5 114.5t234.5 41q76 0 143.5 -18.5t122 -45t95.5 -57t67 -53.5q20 -16 26.5 -6t6.5 26v103q0 31 31 31t30 -31v-389q0 -31 -30 -31 q-31 0 -31 31v143q-57 63 -127 117q-59 45 -144 82t-190 37q-113 0 -209 -36t-172 -100.5t-128 -155.5t-77 -200h586q31 0 31 -31t-31 -30h-596q-4 -31 -6 -61.5t-2 -61.5q0 -33 2 -63.5t6 -59.5h555q31 0 31 -31t-31 -31h-545q25 -111 78 -200.5t131 -154t178.5 -100.5 t219.5 -36q139 0 262 58.5t207 168.5q20 20 43 0q20 -23 0 -43q-86 -109 -213 -177t-299 -68q-133 0 -245 40.5t-198 113.5t-143 174.5t-82 223.5h-193q-30 0 -30 31z" />
<glyph unicode="&#x2122;" horiz-adv-x="1935" d="M160 1270v133q0 31 30 31h533q31 0 31 -31v-133q0 -31 -31 -31t-31 31v71q0 31 -30 31h-144q-31 0 -31 -31v-450q0 -31 31 -31h82q31 0 31 -31t-31 -30h-287q-31 0 -30 30q0 31 30 31h82q31 0 31 31v450q0 31 -31 31h-143q-31 0 -31 -31v-71q0 -31 -31 -31q-30 0 -30 31z M815 829q0 31 31 31h82q31 0 30 31v450q0 31 -30 31h-82q-31 0 -31 31t31 31h158q23 0 34 -8.5t17 -22.5l221 -471q20 -43 41 0l221 471q6 14 17.5 22.5t33.5 8.5h158q31 0 31 -31t-31 -31h-82q-31 0 -31 -31v-450q0 -31 31 -31h82q31 0 31 -31t-31 -30h-287q-31 0 -30 30 q0 31 30 31h82q31 0 31 31v399q0 16 -6 17.5t-11 -7.5l-221 -471q-6 -14 -14 -22t-25 -8q-16 0 -24 8t-15 22l-221 471q-4 8 -10 7.5t-6 -17.5v-399q0 -31 31 -31h82q31 0 30 -31q0 -31 -30 -30h-287q-31 -1 -31 30z" />
<glyph unicode="&#xe000;" horiz-adv-x="1025" d="M0 1025h1025v-1025h-1025v1025z" />
<glyph unicode="&#xfb01;" horiz-adv-x="1454" d="M944 31q0 31 30 30h144q31 0 31 31v840q0 31 -31 31h-144q-31 0 -30 30q0 31 30 31h205q31 0 31 -31v-901q0 -31 31 -31h143q31 0 31 -30q0 -31 -31 -31h-410q-30 0 -30 31zM1087 1270q0 35 23.5 58.5t58.5 23.5t58.5 -23.5t23.5 -58.5t-23.5 -58.5t-58.5 -23.5 t-58.5 23.5t-23.5 58.5zM74 31q0 31 30 30h144q31 0 31 31v840q0 31 -31 31h-144q-31 0 -30 30q0 31 30 31h144q31 0 31 31v20q0 186 83.5 282.5t223.5 96.5q70 0 126 -23.5t96 -65.5t62.5 -100.5t22.5 -127.5q0 -31 -31 -31t-31 31q0 117 -68.5 186.5t-176.5 69.5 q-109 0 -177.5 -78t-68.5 -240v-20q0 -31 31 -31h245q31 0 31 -31t-31 -30h-245q-31 0 -31 -31v-840q0 -31 31 -31h143q31 0 31 -30q0 -31 -31 -31h-410q-30 0 -30 31z" />
<glyph unicode="&#xfb02;" horiz-adv-x="1417" d="M907 31q0 31 31 30h143q31 0 31 31v1249q0 31 -31 31h-143q-31 0 -31 31t31 31h204q31 0 31 -31v-1311q0 -31 31 -31h143q31 0 31 -30q0 -31 -31 -31h-409q-31 0 -31 31zM74 31q0 31 30 30h144q31 0 31 31v840q0 31 -31 31h-144q-31 0 -30 30q0 31 30 31h144q31 0 31 31 v20q0 186 83.5 282.5t223.5 96.5q70 0 126 -23.5t96 -65.5t62.5 -100.5t22.5 -127.5q0 -31 -31 -31t-31 31q0 117 -68.5 186.5t-176.5 69.5q-109 0 -177.5 -78t-68.5 -240v-20q0 -31 31 -31h245q31 0 31 -31t-31 -30h-245q-31 0 -31 -31v-840q0 -31 31 -31h143q31 0 31 -30 q0 -31 -31 -31h-410q-30 0 -30 31z" />
<glyph unicode="&#xfb03;" horiz-adv-x="2322" d="M1813 31q0 31 30 30h144q31 0 31 31v840q0 31 -31 31h-144q-31 0 -30 30q0 31 30 31h205q31 0 31 -31v-901q0 -31 31 -31h143q31 0 31 -30q0 -31 -31 -31h-410q-30 0 -30 31zM1956 1270q0 35 23.5 58.5t58.5 23.5t58.5 -23.5t23.5 -58.5t-23.5 -58.5t-58.5 -23.5 t-58.5 23.5t-23.5 58.5zM942 31q0 31 30 30h144q31 0 31 31v840q0 31 -31 31h-144q-31 0 -30 30q0 31 30 31h144q31 0 31 31v20q0 186 83.5 282.5t223.5 96.5q70 0 126 -23.5t96 -65.5t62.5 -100.5t22.5 -127.5q0 -31 -31 -31t-31 31q0 117 -68.5 186.5t-176.5 69.5 q-109 0 -177.5 -78t-68.5 -240v-20q0 -31 31 -31h245q31 0 31 -31t-31 -30h-245q-31 0 -31 -31v-840q0 -31 31 -31h143q31 0 31 -30q0 -31 -31 -31h-410q-30 0 -30 31zM74 31q0 31 30 30h144q31 0 31 31v840q0 31 -31 31h-144q-31 0 -30 30q0 31 30 31h144q31 0 31 31v20 q0 186 83.5 282.5t223.5 96.5q70 0 126 -23.5t96 -65.5t62.5 -100.5t22.5 -127.5q0 -31 -31 -31t-31 31q0 117 -68.5 186.5t-176.5 69.5q-109 0 -177.5 -78t-68.5 -240v-20q0 -31 31 -31h245q31 0 31 -31t-31 -30h-245q-31 0 -31 -31v-840q0 -31 31 -31h143q31 0 31 -30 q0 -31 -31 -31h-410q-30 0 -30 31z" />
<glyph unicode="&#xfb04;" horiz-adv-x="2285" d="M1776 31q0 31 31 30h143q31 0 31 31v1249q0 31 -31 31h-143q-31 0 -31 31t31 31h204q31 0 31 -31v-1311q0 -31 31 -31h143q31 0 31 -30q0 -31 -31 -31h-409q-31 0 -31 31zM942 31q0 31 30 30h144q31 0 31 31v840q0 31 -31 31h-144q-31 0 -30 30q0 31 30 31h144 q31 0 31 31v20q0 186 83.5 282.5t223.5 96.5q70 0 126 -23.5t96 -65.5t62.5 -100.5t22.5 -127.5q0 -31 -31 -31t-31 31q0 117 -68.5 186.5t-176.5 69.5q-109 0 -177.5 -78t-68.5 -240v-20q0 -31 31 -31h245q31 0 31 -31t-31 -30h-245q-31 0 -31 -31v-840q0 -31 31 -31h143 q31 0 31 -30q0 -31 -31 -31h-410q-30 0 -30 31zM74 31q0 31 30 30h144q31 0 31 31v840q0 31 -31 31h-144q-31 0 -30 30q0 31 30 31h144q31 0 31 31v20q0 186 83.5 282.5t223.5 96.5q70 0 126 -23.5t96 -65.5t62.5 -100.5t22.5 -127.5q0 -31 -31 -31t-31 31 q0 117 -68.5 186.5t-176.5 69.5q-109 0 -177.5 -78t-68.5 -240v-20q0 -31 31 -31h245q31 0 31 -31t-31 -30h-245q-31 0 -31 -31v-840q0 -31 31 -31h143q31 0 31 -30q0 -31 -31 -31h-410q-30 0 -30 31z" />
</font>
</defs>
</svg>
