<?xml version="1.0" standalone="no"?>
<!DOCTYPE svg PUBLIC "-//W3C//DTD SVG 1.1//EN" "http://www.w3.org/Graphics/SVG/1.1/DTD/svg11.dtd" >
<svg xmlns="http://www.w3.org/2000/svg">
<metadata>
This is a custom SVG webfont generated by Font Squirrel.
Copyright   : Copyright  2009 ParaType Ltd All rights reserved
Designer    : AKorolkova OUmpeleva VYefimov
Foundry     : ParaType Ltd
Foundry URL : httpwwwparatypecom
</metadata>
<defs>
<font id="webfont9Vojk3lA" horiz-adv-x="1216" >
<font-face units-per-em="2048" ascent="1577" descent="-471" />
<missing-glyph horiz-adv-x="595" />
<glyph unicode=" "  horiz-adv-x="595" />
<glyph unicode="&#x09;" horiz-adv-x="595" />
<glyph unicode="&#xa0;" horiz-adv-x="595" />
<glyph unicode="!" horiz-adv-x="677" d="M274 1434h201v-703l-41 -354h-119l-41 354v703zM236 104q0 59 37.5 94t99.5 35q61 0 99 -34.5t38 -94.5q0 -55 -38 -92t-99 -37t-99 37t-38 92z" />
<glyph unicode="&#x22;" horiz-adv-x="768" d="M201 1434h188l-72 -406h-116v406zM467 1434h188l-71 -406h-117v406z" />
<glyph unicode="#" d="M625 453h-232l-86 -336h-166l86 336h-174l35 147h178l66 254h-166l35 147h170l82 316h165l-81 -316h231l82 316h166l-82 -316h170l-39 -147h-170l-66 -254h162l-39 -147h-161l-89 -336h-163zM432 600h232l65 254h-231z" />
<glyph unicode="$" d="M539 -27q-125 4 -221.5 23.5t-153.5 48.5l63 172q47 -25 124 -46t188 -26v512q-68 29 -134.5 63t-119 82t-84 114.5t-31.5 160.5q0 160 92 257.5t277 119.5v184h161v-180q113 -4 187 -20.5t133 -42.5l-59 -168q-41 20 -104.5 36.5t-156.5 22.5v-469q70 -31 139.5 -66.5 t125 -85t89 -115t33.5 -157.5q0 -170 -99 -275.5t-288 -133.5v-189h-161v178zM655 150q104 12 168 66t64 157q0 45 -18.5 79.5t-50.5 62.5t-74 50.5t-89 42.5v-458zM584 1286q-119 -10 -166 -64.5t-47 -129.5q0 -82 61.5 -132.5t151.5 -91.5v418z" />
<glyph unicode="%" horiz-adv-x="1748" d="M152 1110q0 90 26.5 155.5t73.5 108.5t111.5 63.5t140.5 20.5t140.5 -19.5t112.5 -60.5t74.5 -107.5t26.5 -160.5t-26.5 -160.5t-74.5 -107.5t-112.5 -60.5t-140.5 -19.5t-140.5 19.5t-111.5 60.5t-73.5 107.5t-26.5 160.5zM332 1110q0 -111 44 -163t128 -52q82 0 128 47 t46 168q0 123 -45 169t-129 46q-82 0 -127 -46t-45 -169zM969 348q0 90 26.5 155.5t73.5 108.5t111.5 63.5t140.5 20.5t140.5 -19.5t112.5 -60.5t74.5 -107.5t26.5 -160.5t-26.5 -160.5t-74.5 -107.5t-112.5 -60.5t-140.5 -19.5t-140.5 19.5t-111.5 60.5t-73.5 107.5 t-26.5 160.5zM1149 348q0 -111 44 -163t128 -52q82 0 128 47t46 168q0 123 -45 169t-129 46q-82 0 -127 -46t-45 -169zM1442 1460l119 -98l-1172 -1389l-117 101z" />
<glyph unicode="&#x26;" horiz-adv-x="1824" d="M256 387q0 82 30.5 154.5t83 137t121 118t144.5 94.5q-53 72 -91 144.5t-38 156.5q0 49 18.5 97t58.5 86t103.5 61.5t153.5 23.5q94 0 158.5 -22.5t103.5 -58.5t55.5 -81t16.5 -90q0 -84 -71 -176t-229 -172q78 -119 182.5 -237.5t213.5 -221.5q25 25 50.5 62t48 80 t43 87t34.5 85l147 -76q-12 -35 -36.5 -82t-54 -95t-60.5 -92t-58 -75q45 -39 81 -66.5t68 -48t60.5 -37t59.5 -30.5l-115 -140q-57 29 -126 76t-140 113q-41 -37 -89 -71t-108.5 -59.5t-134.5 -42t-162 -16.5q-106 0 -200.5 28t-166 81t-113.5 130t-42 175zM1153 279 q-61 57 -123.5 124.5t-118.5 134.5l-103 128l-83 108q-121 -82 -197.5 -171t-76.5 -208q0 -59 28.5 -107t76.5 -82t112.5 -51.5t136.5 -17.5q53 0 105.5 12.5t98.5 32t82.5 45t61.5 52.5zM700 1188q0 -57 26 -113.5t69 -116.5q115 66 160.5 119t45.5 94q0 66 -33.5 104 t-119.5 38q-78 0 -113 -34t-35 -91z" />
<glyph unicode="'" horiz-adv-x="499" d="M201 1434h188l-72 -406h-116v406z" />
<glyph unicode="(" horiz-adv-x="643" d="M510 -451q-104 98 -175 216t-116 242t-64.5 250t-19.5 241q0 113 19.5 237.5t64.5 250.5t118 247t179 225l119 -88q-88 -102 -147.5 -211.5t-94.5 -221.5t-50 -223.5t-15 -215.5q0 -98 17 -211t55 -226.5t96.5 -222t140.5 -196.5z" />
<glyph unicode=")" horiz-adv-x="641" d="M133 1458q102 -98 174 -216t116 -241.5t63.5 -249.5t19.5 -241q0 -113 -19.5 -238t-64.5 -250.5t-118 -246.5t-179 -226l-119 91q90 104 149.5 213.5t94.5 220t49 221.5t14 215q0 98 -17 211t-54 225.5t-94.5 220t-139.5 197.5z" />
<glyph unicode="*" horiz-adv-x="792" d="M295 1483l57 -90l39 -121l43 119l55 92l111 -62l-59 -96l-103 -100l152 28h108v-129h-104l-141 29l102 -102l51 -84l-108 -64l-58 92l-51 129l-39 -123l-55 -92l-117 64l62 92l94 88l-129 -29h-113v129h113l139 -28l-102 96l-60 98z" />
<glyph unicode="+" horiz-adv-x="1134" d="M88 776h391v389h176v-389h392v-172h-392v-391h-176v391h-391v172z" />
<glyph unicode="," horiz-adv-x="448" d="M109 96q0 53 38.5 87t94.5 34q72 0 116.5 -48t44.5 -134q0 -80 -23.5 -138.5t-60 -100.5t-80.5 -66.5t-87 -36.5l-58 94q78 27 118 85t38 118q-55 -16 -98 12t-43 94z" />
<glyph unicode="-" horiz-adv-x="806" d="M131 680h545v-176h-545v176z" />
<glyph unicode="." horiz-adv-x="487" d="M106 104q0 59 38 94t100 35q61 0 99 -34.5t38 -94.5q0 -55 -38 -92t-99 -37t-99.5 37t-38.5 92z" />
<glyph unicode="/" horiz-adv-x="811" d="M737 1458l152 -69l-817 -1676l-150 74z" />
<glyph unicode="0" d="M90 717q0 358 131 550.5t387 192.5q270 0 395 -190.5t125 -552.5q0 -356 -133 -550t-389 -194q-135 0 -232.5 53.5t-159.5 150.5t-93 234.5t-31 305.5zM291 717q0 -125 18.5 -230.5t56 -183.5t98 -122t144.5 -44q166 0 243 143.5t77 436.5q0 125 -16.5 230.5t-54.5 183 t-99.5 121.5t-149.5 44q-166 0 -241.5 -145t-75.5 -434z" />
<glyph unicode="1" d="M231 172h312v952l24 125l-90 -102l-244 -164l-86 121l494 354h90v-1286h307v-172h-807v172z" />
<glyph unicode="2" d="M1001 1098q0 -104 -43 -214t-111.5 -218.5t-153.5 -214.5l-171 -205l-110 -88v-8l147 22h477v-172h-903v74l118 115q69 69 143.5 152t147 175t130 187.5t93.5 187.5t36 174q0 96 -59.5 159.5t-182.5 63.5q-86 0 -166 -32.5t-137 -79.5l-84 137q84 68 190.5 107.5 t235.5 39.5q190 0 296.5 -99t106.5 -263z" />
<glyph unicode="3" d="M522 141q76 0 139.5 20.5t108.5 57.5t70.5 88t25.5 113q0 135 -90 200.5t-256 65.5h-166v78l314 426l106 90l-151 -18h-430v172h808v-80l-346 -465l-82 -60v-6l78 15q88 -2 163 -31t130 -81t86 -125t31 -163q0 -115 -43 -200.5t-117 -145t-172 -89.5t-211 -30 q-100 0 -184 15.5t-146 42.5l52 168q53 -25 123.5 -41.5t158.5 -16.5z" />
<glyph unicode="4" d="M1180 432h-262v-432h-189v432h-690v86l741 936h138v-862h262v-160zM729 1008l19 163h-7l-75 -133l-304 -366l-108 -97l154 17h321v416z" />
<glyph unicode="5" d="M217 184q51 -18 109.5 -28.5t148.5 -10.5q154 0 252 75t98 220q0 141 -99 212t-275 71l-187 -8v719h711v-181h-531v-370l97 4q111 0 198.5 -31t150 -86t96.5 -136t34 -183q0 -117 -43 -206t-118 -149.5t-175 -91.5t-215 -31q-98 0 -171 12.5t-134 34.5z" />
<glyph unicode="6" d="M1106 434q0 -90 -33 -173t-94 -147.5t-151.5 -102.5t-204.5 -38q-111 0 -202 35t-156.5 100.5t-101.5 162t-36 218.5q0 197 57.5 366t158.5 298t239.5 209t302.5 98l39 -155q-123 -16 -224.5 -72.5t-178.5 -137.5t-126 -180.5t-65 -201.5q18 27 48 53.5t70.5 47t92 32.5 t110.5 12q104 0 189.5 -29.5t143.5 -85t90 -133.5t32 -176zM911 420q0 135 -74.5 204.5t-224.5 69.5q-109 0 -185.5 -47t-107.5 -106q-4 -27 -4 -42v-36q0 -59 18.5 -117.5t57.5 -104.5t97.5 -75t136.5 -29q63 0 115.5 22.5t90 61.5t59 90.5t21.5 108.5z" />
<glyph unicode="7" d="M236 0l552 1174l99 100l-133 -21h-627v181h950v-60l-645 -1374h-196z" />
<glyph unicode="8" d="M444 737q-55 31 -103 65t-84 77t-56.5 96t-20.5 121q0 78 31 144.5t88 115.5t139 76.5t185 27.5q94 0 170.5 -24.5t131 -69.5t84 -105.5t29.5 -132.5q0 -117 -57 -204.5t-190 -169.5q59 -33 111 -69t90 -81t59.5 -100t21.5 -125q0 -88 -31.5 -162t-93 -128t-150.5 -85 t-202 -31q-109 0 -191.5 30t-141 80t-88.5 118.5t-30 146.5q0 129 73.5 221t225.5 168zM571 674q-131 -66 -186 -147t-55 -152q0 -47 18.5 -90t53 -76t86 -52.5t118.5 -19.5q55 0 106.5 15.5t89.5 44t60.5 72.5t22.5 102q0 55 -27 99t-71 80t-100 65zM664 809 q94 68 141 135.5t47 145.5q0 49 -19.5 86.5t-51 64.5t-74.5 41t-91 14q-59 0 -104 -17t-77 -45t-48 -62.5t-16 -71.5q0 -55 24.5 -98.5t64.5 -77t93.5 -61z" />
<glyph unicode="9" d="M109 997q0 96 31.5 181.5t93 148t153.5 98t213 35.5q115 0 206 -37t154.5 -104.5t97.5 -163.5t34 -217q0 -231 -58.5 -405.5t-162 -294t-241.5 -185t-298 -80.5l-41 154q129 14 231.5 62.5t176 123t120.5 170t66 205.5q-31 -33 -62.5 -55.5t-69.5 -35.5t-84 -18.5 t-106 -5.5q-90 0 -173 29t-145.5 82t-99 132t-36.5 181zM305 1012q0 -137 84 -208t217 -71q109 0 183.5 35t109.5 84q4 25 4 43v41q0 68 -18.5 133.5t-56 116.5t-97 82.5t-141.5 31.5q-135 0 -210 -76.5t-75 -211.5z" />
<glyph unicode=":" horiz-adv-x="559" d="M203 911q0 59 38 94t99 35t99 -34.5t38 -94.5q0 -55 -38 -92t-99 -37t-99 37t-38 92zM203 104q0 59 38 94t99 35t99 -34.5t38 -94.5q0 -55 -38 -92t-99 -37t-99 37t-38 92z" />
<glyph unicode=";" horiz-adv-x="567" d="M190 96q0 53 39 87t95 34q72 0 116.5 -48t44.5 -134q0 -80 -23.5 -138.5t-60 -100.5t-81 -66.5t-87.5 -36.5l-57 94q78 27 118 85t38 118q-55 -16 -98.5 12t-43.5 94zM201 911q0 59 37.5 94t99.5 35q61 0 99 -34.5t38 -94.5q0 -55 -38 -92t-99 -37t-99 37t-38 92z" />
<glyph unicode="&#x3c;" horiz-adv-x="1134" d="M90 614v78l858 484l86 -148l-524 -295l-205 -76l203 -65l536 -293l-83 -143z" />
<glyph unicode="=" horiz-adv-x="1134" d="M88 952h959v-172h-959v172zM88 600h959v-172h-959v172z" />
<glyph unicode="&#x3e;" horiz-adv-x="1134" d="M1044 713v-78l-860 -481l-84 147l525 295l204 76l-202 65l-537 293l82 146z" />
<glyph unicode="?" horiz-adv-x="980" d="M328 377q-8 102 15.5 176t64.5 131t91 102t94 90.5t73.5 96.5t29.5 119q0 90 -54 147t-189 57q-82 0 -167 -30.5t-145 -65.5l-65 148q86 53 182 82.5t238 29.5q100 0 176 -26.5t127 -72.5t76.5 -108.5t25.5 -134.5q0 -96 -30.5 -164.5t-75.5 -122t-98.5 -98.5t-98.5 -95 t-75.5 -111.5t-30.5 -149.5h-164zM283 104q0 59 37.5 94t99.5 35q61 0 99 -34.5t38 -94.5q0 -55 -38 -92t-99 -37t-99 37t-38 92z" />
<glyph unicode="@" horiz-adv-x="2381" d="M1577 1004h86l-115 -578q-25 -129 -16.5 -190.5t82.5 -61.5t146.5 35t129 99.5t92 155.5t35.5 204q0 162 -59.5 285.5t-163.5 207.5t-248.5 127t-312.5 43q-182 0 -340 -63.5t-274.5 -175t-184 -264t-67.5 -332.5q0 -178 59 -322.5t171 -246t270.5 -156t355.5 -54.5 q66 0 146.5 15.5t148.5 44.5l47 -154q-98 -41 -184.5 -55t-188.5 -14q-213 0 -395.5 62t-317.5 181t-212 292t-77 394q0 229 84 415.5t228.5 319t335 205t405.5 72.5q201 0 374 -58.5t301 -166t200.5 -260t72.5 -342.5q0 -127 -49 -245t-134 -209t-197.5 -145.5 t-239.5 -54.5q-57 0 -101.5 13.5t-72 45t-35.5 85t6 133.5h-8q-33 -49 -76 -98.5t-94 -89.5t-111.5 -64.5t-128.5 -24.5q-53 0 -100 22.5t-83 64.5t-56.5 99.5t-20.5 127.5q0 123 46 245.5t126 221t185.5 160t222.5 61.5q82 0 133 -23.5t98 -56.5zM1446 784q-37 39 -74 55.5 t-94 16.5q-86 0 -158.5 -47t-126 -120t-84 -160t-30.5 -169q0 -74 33.5 -130t125.5 -56q43 0 90.5 28.5t93.5 76t88 106.5t74 121z" />
<glyph unicode="A" horiz-adv-x="1320" d="M936 375h-567l-152 -375h-201l590 1454h107l592 -1454h-213zM430 547h447l-166 407l-56 220h-4l-55 -224z" />
<glyph unicode="B" horiz-adv-x="1312" d="M1145 1102q0 -53 -17.5 -105.5t-53.5 -98.5t-91 -81t-131 -51v-8q66 -8 127 -33t108.5 -68t76 -104t28.5 -145q0 -111 -51 -192t-135 -133t-189.5 -76.5t-212.5 -24.5q-37 0 -90 1t-111.5 4t-117 8t-103.5 15v1411q84 14 197 22.5t242 8.5q88 0 181 -15.5t169 -54.5 t125 -106.5t49 -173.5zM383 168q14 -4 43 -6t62.5 -4t67.5 -3t62 -1q70 0 134.5 14t113.5 45t79 78t30 112q0 82 -36 130.5t-93.5 74t-129 32.5t-141.5 7h-192v-479zM496 807q39 0 90 3t86 7q51 14 97 35.5t81 51.5t55.5 70t20.5 91q0 70 -28 112t-73 64.5t-102 30.5t-117 8 q-72 0 -132 -3t-91 -7v-463h113z" />
<glyph unicode="C" horiz-adv-x="1277" d="M1196 61q-68 -49 -172 -68.5t-221 -19.5q-137 0 -261 44t-218.5 135.5t-149.5 231.5t-55 333q0 201 61.5 342t159.5 230t221 130t244 41q135 0 221 -14t145 -37l-45 -176q-100 47 -305 47q-92 0 -179 -29.5t-155.5 -96.5t-109.5 -174.5t-41 -262.5q0 -139 39 -244.5 t107.5 -176.5t161.5 -106.5t204 -35.5q100 0 174 18t125 47z" />
<glyph unicode="D" horiz-adv-x="1464" d="M182 1434q41 6 95.5 9t113 5t114.5 3t103 1q188 0 326.5 -54.5t229.5 -150.5t136.5 -229t45.5 -291q0 -143 -42 -277.5t-134.5 -239t-237 -167.5t-348.5 -63q-35 0 -94 2l-119 4q-61 2 -113.5 5t-75.5 7v1436zM614 1272h-61q-33 0 -65.5 -2t-59.5 -4t-41 -4v-1094 q10 -2 40 -3l62.5 -2t61.5 -2t41 -1q154 0 257 48t165.5 128t88 181t25.5 210q0 92 -24.5 188.5t-83.5 175t-157.5 130t-248.5 51.5z" />
<glyph unicode="E" horiz-adv-x="1198" d="M182 1434h867v-177h-662v-436h604v-176h-604v-469h672v-176h-877v1434z" />
<glyph unicode="F" horiz-adv-x="1157" d="M182 1434h867v-177h-662v-456h614v-176h-614v-625h-205v1434z" />
<glyph unicode="G" horiz-adv-x="1368" d="M713 723h536v-633q-37 -29 -88 -50.5t-109.5 -35.5t-120 -22.5t-120.5 -8.5q-147 0 -273 44t-219.5 136.5t-146.5 232.5t-53 331q0 199 64.5 340t167 231t228.5 131t250 41q135 0 224.5 -15t148.5 -38l-49 -174q-106 47 -307 47q-92 0 -183.5 -28.5t-164 -95 t-117.5 -174.5t-45 -265q0 -145 38 -252t105.5 -176.5t159.5 -102t201 -32.5q68 0 130 13t109 38v362l-366 37v119z" />
<glyph unicode="H" horiz-adv-x="1501" d="M1114 641h-727v-641h-205v1434h205v-613h727v613h205v-1434h-205v641z" />
<glyph unicode="I" horiz-adv-x="815" d="M305 1298h-164v136h533v-136h-164v-1163h164v-135h-533v135h164v1163z" />
<glyph unicode="J" horiz-adv-x="665" d="M256 1434h205v-1106q0 -160 -83 -254t-245 -94q-20 0 -48 2t-56.5 7t-55 11t-45.5 14l39 170q57 -25 137 -24q92 0 122 59.5t30 163.5v1051z" />
<glyph unicode="K" horiz-adv-x="1370" d="M487 651h-100v-651h-205v1434h205v-660l94 29l516 631h234l-516 -615l-97 -69l113 -82l569 -668h-258z" />
<glyph unicode="L" horiz-adv-x="1159" d="M1120 0h-938v1434h205v-1254h733v-180z" />
<glyph unicode="M" horiz-adv-x="1777" d="M1391 924l22 229h-8l-88 -199l-399 -635h-62l-420 637l-84 195h-10l33 -225v-926h-193v1434h154l485 -732l76 -155h4l72 160l461 727h161v-1434h-204v924z" />
<glyph unicode="N" horiz-adv-x="1505" d="M481 911l-123 201h-8l25 -201v-911h-193v1454h115l731 -930l117 -190h10l-25 190v910h193v-1454h-115z" />
<glyph unicode="O" horiz-adv-x="1529" d="M119 717q0 176 44 314t127 233.5t202.5 145.5t271.5 50q162 0 283.5 -54t202.5 -151.5t121 -234.5t40 -303q0 -176 -44 -314.5t-128 -233.5t-204 -145.5t-271 -50.5q-164 0 -285 54.5t-200.5 151.5t-119.5 234.5t-40 303.5zM336 717q0 -117 25.5 -219.5t78 -180 t133 -122.5t191.5 -45q199 0 314.5 137t115.5 430q0 115 -25.5 217t-78 180t-133 124t-193.5 46q-197 0 -312.5 -139t-115.5 -428z" />
<glyph unicode="P" horiz-adv-x="1257" d="M182 1419q86 18 187.5 25.5t199.5 7.5q104 0 212 -18.5t196 -67.5t144.5 -136t56.5 -224q0 -129 -51.5 -220.5t-136.5 -148.5t-194.5 -84t-226.5 -27q-12 0 -38 1l-53 2q-28 1 -53.5 3.5t-37.5 4.5v-537h-205v1419zM575 1276q-55 0 -107 -2t-81 -10v-551q10 -4 33.5 -5 t49.5 -3.5t49 -2.5h36q74 0 145.5 11.5t130 44.5t94.5 92t36 154q0 82 -35 135t-90.5 83.5t-124 42t-136.5 11.5z" />
<glyph unicode="Q" horiz-adv-x="1529" d="M1579 -371q-53 -14 -106.5 -19t-106.5 -5q-113 0 -220.5 21.5t-206.5 47t-191.5 47t-174.5 21.5q-51 0 -100 -12v176q61 12 123 12q92 0 185 -21.5t188.5 -46t197 -46t211.5 -21.5q47 0 97.5 5t103.5 17v-176zM119 717q0 176 44 314t127 233.5t202.5 145.5t271.5 50 q162 0 283.5 -54t202.5 -151.5t121 -234.5t40 -303q0 -176 -44 -314.5t-128 -233.5t-204 -145.5t-271 -50.5q-164 0 -285 54.5t-200.5 151.5t-119.5 234.5t-40 303.5zM336 717q0 -117 25.5 -219.5t78 -180t133 -122.5t191.5 -45q199 0 314.5 137t115.5 430q0 115 -25.5 217 t-78 180t-133 124t-193.5 46q-197 0 -312.5 -139t-115.5 -428z" />
<glyph unicode="R" horiz-adv-x="1337" d="M182 1419q43 8 95.5 14.5t105.5 10.5t106.5 6t100.5 2q102 0 197.5 -20.5t168 -67.5t116.5 -123t44 -186q0 -86 -26.5 -156t-73.5 -123t-111.5 -89t-140.5 -54l106 -72l385 -561h-235l-426 604l-207 29v-633h-205v1419zM596 1276h-58q-30 0 -58.5 -2t-53.5 -4t-39 -6 v-496h168q74 0 136.5 15.5t108.5 47t72.5 83t26.5 124.5q0 111 -78 174.5t-225 63.5z" />
<glyph unicode="S" horiz-adv-x="1189" d="M887 377q0 84 -55.5 133t-139.5 85t-180 67.5t-180 81t-139.5 127t-55.5 202.5q0 174 128 280.5t366 106.5q137 0 251.5 -20.5t180.5 -53.5l-64 -172q-51 27 -153.5 48.5t-224.5 21.5q-139 0 -209 -59.5t-70 -137.5q0 -80 55.5 -129t139.5 -86.5t180 -72.5t180 -86 t139.5 -126t55.5 -192q0 -96 -37 -174t-106.5 -133t-168 -85t-223.5 -30q-168 0 -283.5 26t-175.5 54l68 178q51 -27 154.5 -54t228.5 -27q72 0 133 13t107.5 40.5t72 71t25.5 102.5z" />
<glyph unicode="T" horiz-adv-x="1249" d="M1210 1253h-483v-1253h-205v1253h-483v181h1171v-181z" />
<glyph unicode="U" horiz-adv-x="1454" d="M1079 1434h193v-936q0 -133 -38 -229.5t-107.5 -161t-165 -95t-211.5 -30.5q-276 0 -422 119.5t-146 355.5v977h205v-899q0 -209 91 -291t270 -82q172 0 251.5 90t79.5 289v893z" />
<glyph unicode="V" horiz-adv-x="1286" d="M606 479l53 -223h5l55 227l368 951h205l-594 -1454h-102l-602 1454h225z" />
<glyph unicode="W" horiz-adv-x="1869" d="M506 504l33 -240h4l37 244l317 926h102l320 -930l37 -240h4l39 244l254 926h200l-436 -1454h-117l-313 931l-43 217h-10l-41 -219l-313 -929h-119l-445 1454h215z" />
<glyph unicode="X" horiz-adv-x="1388" d="M573 729l-473 705h244l309 -471l56 -119l53 119l323 471h226l-488 -691l510 -743h-239l-342 500l-64 125l-57 -125l-350 -500h-226z" />
<glyph unicode="Y" horiz-adv-x="1263" d="M535 561l-521 873h240l358 -609l35 -131h4l39 135l342 605h217l-510 -871v-563h-204v561z" />
<glyph unicode="Z" horiz-adv-x="1220" d="M80 180l772 991l100 82h-872v181h1061v-181l-779 -997l-96 -76h875v-180h-1061v180z" />
<glyph unicode="[" horiz-adv-x="688" d="M182 1434h422v-164h-233v-1577h233v-164h-422v1905z" />
<glyph unicode="\" horiz-adv-x="862" d="M905 -211l-155 -76l-824 1671l156 74z" />
<glyph unicode="]" horiz-adv-x="688" d="M506 -471h-422v164h233v1577h-233v164h422v-1905z" />
<glyph unicode="^" horiz-adv-x="1134" d="M545 1454h78l385 -573h-201l-174 270l-53 141l-66 -143l-205 -268h-184z" />
<glyph unicode="_" horiz-adv-x="925" d="M0 -268h926v-160h-926v160z" />
<glyph unicode="`" horiz-adv-x="616" d="M494 1167h-111l-260 260v48h225z" />
<glyph unicode="a" horiz-adv-x="1191" d="M168 1008q184 88 457 88q123 0 197.5 -32t115.5 -81t54.5 -109.5t13.5 -119.5q0 -113 -8.5 -226.5t-8.5 -246.5q0 -78 7.5 -151t23.5 -134h-137l-52 164h-20q-23 -31 -55.5 -62.5t-77.5 -56.5t-103.5 -41t-134.5 -16t-139 21.5t-109.5 60t-73 95t-26.5 126.5 q0 92 40 159.5t103.5 110.5t144.5 63.5t161 20.5q63 0 107 -2t74 -5t50.5 -6t36.5 -5q4 31 6 53t2 57q0 57 -12 96t-40 62.5t-75 34t-115 10.5q-39 0 -86 -6t-94 -17.5t-93 -28t-83 -34.5zM809 487q-16 2 -34.5 6.5t-46.5 6.5t-65.5 4t-93.5 2q-127 0 -201.5 -45t-74.5 -154 q0 -82 58.5 -123t150.5 -41q68 0 120 17.5t90 43t61.5 57.5t35.5 63v163z" />
<glyph unicode="b" horiz-adv-x="1288" d="M180 1434h189v-492h20q47 82 135 122t187 40q223 0 338.5 -136.5t115.5 -410.5q0 -281 -151.5 -428t-425.5 -147q-135 0 -245 22.5t-163 52.5v1377zM684 944q-66 0 -116 -20.5t-89 -56.5t-66.5 -82t-43.5 -95v-510q100 -39 243 -39q162 0 257.5 99.5t95.5 318.5 q0 82 -16.5 152.5t-51.5 122t-87 81t-126 29.5z" />
<glyph unicode="c" horiz-adv-x="1083" d="M991 74q-72 -51 -168 -77t-202 -26q-135 0 -230.5 41t-155 115t-86 178.5t-26.5 231.5q0 272 132 420.5t380 148.5q109 0 188.5 -19.5t143.5 -48.5l-49 -153q-55 29 -120 45t-141 16q-334 0 -333 -409q0 -78 18 -151t59 -129t107.5 -91t163.5 -35q86 0 150.5 23.5 t107.5 56.5z" />
<glyph unicode="d" horiz-adv-x="1288" d="M1102 371q0 -104 3 -195.5t19 -179.5h-125l-47 164h-20q-47 -82 -138.5 -135.5t-211.5 -53.5q-231 0 -345 137.5t-114 421.5q0 274 140 421t394 147q43 0 77 -3t63.5 -7.5t57.5 -12.5l58 -16v375h189v-1063zM913 877q-47 35 -101 48t-144 13q-166 0 -257.5 -96.5 t-91.5 -313.5q0 -86 16.5 -158.5t51.5 -126t92.5 -83t141.5 -29.5q125 0 194.5 62.5t97.5 185.5v498z" />
<glyph unicode="e" horiz-adv-x="1224" d="M1055 88q-72 -53 -178.5 -85t-231.5 -32q-135 0 -234.5 40t-163 114t-94 178.5t-30.5 233.5q0 276 136 422.5t388 146.5q80 0 160 -17.5t143.5 -65.5t103.5 -132t40 -219q0 -33 -2 -76t-9 -84h-768q4 -188 90.5 -284.5t292.5 -96.5q86 0 164 29.5t121 70.5zM913 647 q0 9 1 18q0 150 -67 214q-71 68 -198 67q-143 0 -227 -67.5t-98 -231.5h589z" />
<glyph unicode="f" horiz-adv-x="745" d="M49 1075h182v29q0 100 18.5 168.5t58.5 110.5t104.5 60.5t156.5 18.5q78 0 136.5 -9t121.5 -32l-41 -153q-53 23 -99 29t-89 6q-57 0 -92 -10.5t-54.5 -36t-25.5 -69.5t-6 -112h315v-160h-315v-915h-189v915h-182v160z" />
<glyph unicode="g" horiz-adv-x="1284" d="M1100 -6q0 -211 -124 -314.5t-364 -103.5q-139 0 -225 16.5t-147 45.5l45 169q27 -12 61.5 -25t73.5 -23.5t79 -16.5t76 -6q100 0 166 17.5t105 54t53 94t14 137.5v76h-22q-33 -53 -115 -86t-198 -33q-233 0 -344 126t-111 406q0 276 143.5 426t425.5 150 q135 0 232.5 -16.5t175.5 -43.5v-1050zM618 156q125 0 196 63.5t97 165.5v528q-47 14 -108.5 22.5t-138.5 8.5q-160 0 -250 -101.5t-90 -310.5q0 -180 66 -278t228 -98z" />
<glyph unicode="h" horiz-adv-x="1312" d="M944 0v594q0 88 -11 152.5t-41 107.5t-80 63.5t-126 20.5q-53 0 -104.5 -18.5t-94.5 -51t-73.5 -79t-44.5 -103.5v-686h-189v1434h189v-492h22q61 74 147.5 119t213.5 45q98 0 169.5 -21.5t118.5 -76t70 -145.5t23 -228v-635h-189z" />
<glyph unicode="i" horiz-adv-x="649" d="M233 1075h189v-1075h-189v1075zM195 1331q0 47 37 85t96 38t98 -38t39 -85t-39 -83t-98 -36t-96 36t-37 83z" />
<glyph unicode="j" horiz-adv-x="638" d="M229 1075h189v-1112q0 -199 -75 -296t-241 -97h-35q-19 0 -42 4v156q68 -2 107.5 16t61 56t28.5 94.5t7 134.5v1044zM186 1331q0 47 37 85t96 38t98 -38t39 -85t-39 -83t-98 -36t-96 36t-37 83z" />
<glyph unicode="k" horiz-adv-x="1140" d="M485 483h-116v-483h-189v1434h189v-848l106 35l356 454h222l-342 -416h2l-113 -81l129 -93l379 -485h-238z" />
<glyph unicode="l" horiz-adv-x="688" d="M393 285q0 -84 32 -119t85 -35q33 0 63.5 4t73.5 17l25 -140q-20 -8 -49 -15t-60 -13.5t-61.5 -9.5t-55.5 -3q-111 0 -176 56.5t-65 187.5v1219h188v-1149z" />
<glyph unicode="m" horiz-adv-x="1941" d="M877 0v590q0 86 -8.5 151.5t-33 109.5t-68.5 65.5t-114 21.5q-109 0 -181.5 -60.5t-102.5 -154.5v-723h-189v1075h129l37 -143h21q66 74 150.5 124t215.5 50q111 0 185.5 -47t113.5 -158q61 94 155.5 149.5t211.5 55.5q98 0 166.5 -22.5t111.5 -78t63.5 -149.5t20.5 -238 v-618h-188v618q0 82 -9.5 141.5t-34 99.5t-68.5 59.5t-115 19.5q-117 0 -184.5 -61.5t-96.5 -184.5v-692h-188z" />
<glyph unicode="n" horiz-adv-x="1312" d="M944 0v594q0 172 -55 258t-197 86q-125 0 -208 -64.5t-115 -164.5v-709h-189v1075h131l37 -143h19q59 74 154 124t229 50q94 0 165.5 -21.5t119.5 -76t73 -145.5t25 -230v-633h-189z" />
<glyph unicode="o" horiz-adv-x="1292" d="M123 537q0 133 35 238.5t102.5 179t164.5 112.5t222 39q131 0 229.5 -43t164 -120t97 -180.5t31.5 -225.5q0 -131 -35.5 -235.5t-102 -178.5t-164 -113t-220.5 -39q-135 0 -233.5 43t-163 119t-96 179.5t-31.5 224.5zM324 537q0 -76 17 -149t56 -130t100.5 -92t151.5 -35 q319 0 320 406q0 80 -17.5 153.5t-55.5 130t-99.5 91t-147.5 34.5q-160 0 -242.5 -101t-82.5 -308z" />
<glyph unicode="p" horiz-adv-x="1290" d="M180 1075h127l37 -137h18q55 80 143.5 124t199.5 44q233 0 347.5 -130t114.5 -415q0 -135 -37.5 -244.5t-108.5 -186.5t-172 -118t-226 -41q-41 0 -75 3t-62.5 10.5t-57.5 16.5t-59 22v-433h-189v1485zM662 946q-123 0 -193 -61.5t-100 -188.5v-495q47 -33 102 -51.5 t141 -18.5q166 0 260.5 108.5t94.5 323.5q0 174 -69.5 278.5t-235.5 104.5z" />
<glyph unicode="q" horiz-adv-x="1280" d="M1100 -410h-187l-2 527h-22q-47 -70 -120 -108t-189 -38q-457 0 -457 557q0 281 146.5 425.5t430.5 144.5q61 0 121 -6.5t113 -15.5t95 -20.5t71 -23.5v-1442zM911 897q-94 41 -245 41q-166 0 -254 -100.5t-88 -305.5q0 -90 15 -163.5t51 -126t92.5 -82t138.5 -29.5 q123 0 191.5 61.5t98.5 184.5v520z" />
<glyph unicode="r" horiz-adv-x="778" d="M741 897l-67.5 18.5t-61.5 8.5q-109 0 -169 -55.5t-74 -139.5v-729h-189v1075h131l37 -143h19q47 80 109.5 124t156.5 44q29 0 67.5 -5t77.5 -18z" />
<glyph unicode="s" horiz-adv-x="1021" d="M723 301q0 41 -19.5 68.5t-52.5 47t-76 34.5l-90 28q-59 16 -119.5 36t-108.5 53.5t-79 87t-31 135.5q0 160 95.5 237.5t267.5 77.5q129 0 217 -24.5t154 -53.5l-45 -160q-55 27 -132 52.5t-169 25.5q-100 0 -149.5 -32.5t-49.5 -118.5q0 -35 18.5 -58.5t49 -41t71.5 -31 t86 -25.5q61 -16 122.5 -37.5t113 -57.5t83 -91.5t31.5 -139.5q0 -152 -102 -247t-307 -95q-131 0 -228.5 27t-162.5 61l53 164q57 -31 147 -61.5t183 -30.5q100 0 164.5 36t64.5 134z" />
<glyph unicode="t" horiz-adv-x="829" d="M49 1075h182v217l189 49v-266h323v-160h-323v-548q0 -129 32.5 -182.5t112.5 -53.5q51 0 93 11.5t96 29.5l43 -133q-66 -29 -140.5 -48.5t-160.5 -19.5q-143 0 -204 78t-61 254v612h-182v160z" />
<glyph unicode="u" horiz-adv-x="1318" d="M369 1075v-592q0 -86 10 -151.5t36.5 -109.5t73 -67.5t117.5 -23.5q123 0 201 69.5t119 172.5v702h188v-770q0 -78 6 -158.5t19 -146.5h-127l-49 178h-21q-53 -92 -147.5 -149.5t-235.5 -57.5q-94 0 -164.5 22.5t-119 77t-72 144.5t-23.5 225v635h189z" />
<glyph unicode="v" horiz-adv-x="1095" d="M496 457l71 -221l68 225l256 614h205l-502 -1098h-82l-512 1098h221z" />
<glyph unicode="w" horiz-adv-x="1720" d="M958 1075l177 -407l88 -207l55 -207h14l47 213l201 608h180l-391 -1098h-102l-301 695v-2l-54 198l-61 -200v2l-289 -693h-98l-408 1098h207l228 -608l38 -215h19l57 219l248 604h145z" />
<glyph unicode="x" horiz-adv-x="1212" d="M477 551l-387 524h240l209 -274l71 -146l84 146l217 274h213l-391 -516l209 -278l209 -281h-233l-236 305l-82 154l-84 -154l-237 -305h-218z" />
<glyph unicode="y" horiz-adv-x="1087" d="M514 395l64 -207h26l51 209l224 678h192l-352 -973l-79 -194q-40 -94 -88 -167t-106.5 -117t-134.5 -44q-82 0 -139 19l31 159q31 -10 61 -10q41 0 75 10.5t62.5 37t52 74.5t44.5 124l-482 1081h224z" />
<glyph unicode="z" horiz-adv-x="1054" d="M98 162l531 647l143 106h-674v160h846v-162l-536 -653l-144 -100h680v-160h-846v162z" />
<glyph unicode="{" horiz-adv-x="784" d="M299 221q0 104 -46 143t-132 39v156q86 0 132 42t46 132v477q0 98 53.5 162t161.5 64h205v-164h-115q-117 0 -117 -127v-459q0 -90 -48 -136t-109 -56v-17q59 -8 108 -61.5t49 -139.5v-456q0 -63 28 -95t91 -32h113v-164h-205q-100 0 -157.5 57.5t-57.5 165.5v469z" />
<glyph unicode="|" horiz-adv-x="528" d="M182 1434h164v-1700h-164v1700z" />
<glyph unicode="}" horiz-adv-x="784" d="M539 743q0 -104 47 -143t133 -39v-155q-86 0 -133 -42t-47 -133v-477q0 -98 -54.5 -161.5t-165.5 -63.5h-198v164h112q117 0 117 127v459q0 90 48 136t108 56v16q-59 8 -107.5 61.5t-48.5 139.5v457q0 127 -119 127h-110v164h201q100 0 158.5 -57.5t58.5 -166.5v-469z " />
<glyph unicode="~" horiz-adv-x="1134" d="M70 748q98 70 176 96t143 26q63 0 116.5 -17t103.5 -37.5t97.5 -38t98.5 -17.5q41 0 86 15.5t98 55.5l76 -145q-84 -53 -149.5 -74.5t-120.5 -21.5q-59 0 -109.5 17.5t-98.5 39t-95.5 40t-102.5 18.5q-51 0 -110.5 -23t-135.5 -78z" />
<glyph unicode="&#xa1;" horiz-adv-x="673" d="M399 -410h-204v703l41 354h122l41 -354v-703zM156 948q0 59 37.5 94t99.5 35q61 0 99 -34.5t38 -94.5q0 -55 -38 -92t-99 -37t-99 37t-38 92z" />
<glyph unicode="&#xa2;" d="M1059 70q-55 -33 -127 -56.5t-150 -33.5v-199h-161v194q-119 8 -203 53.5t-136.5 118t-77 171t-24.5 217.5q0 250 113 394t328 169v192h161v-190q78 -4 140.5 -19.5t115.5 -38.5l-55 -155q-49 25 -105.5 37t-111.5 16v-811q70 4 131 26.5t109 49.5zM643 936 q-279 -37 -278 -401q0 -68 14 -133.5t48 -119t86 -93t130 -54.5v801z" />
<glyph unicode="&#xa3;" d="M90 788h148q-27 53 -45.5 114t-18.5 145q0 100 34 176.5t95.5 129t148.5 80t195 27.5q137 0 240.5 -22.5t169.5 -51.5l-62 -174q-47 25 -134 48.5t-212 23.5q-129 0 -199.5 -64.5t-70.5 -166.5q0 -80 24.5 -142.5t55.5 -122.5h350v-163h-272q12 -39 20 -82t8 -92 q0 -61 -21.5 -125t-62.5 -107l-82 -65v-11l131 29h568v-172h-1008v172h4q70 2 121 24.5t84 58.5t48 82t15 95q0 57 -12 104.5t-28 88.5h-232v163z" />
<glyph unicode="&#xa4;" d="M193 1233l159 -158l43 -71q43 33 97.5 48t115.5 15q125 0 211 -63l45 71l160 158l111 -115l-158 -160l-72 -43q63 -88 64 -208q0 -61 -15.5 -114.5t-48.5 -94.5l72 -41l158 -160l-111 -115l-160 158l-43 70q-41 -29 -97 -46.5t-116 -17.5q-125 0 -213 64l-43 -70 l-159 -158l-111 115l158 160l69 41q-61 90 -61 209q0 59 16.5 111t44.5 100l-69 40l-158 160zM408 707q0 -90 55 -149.5t145 -59.5q88 0 144.5 59t56.5 150q0 88 -56.5 148t-144.5 60q-90 0 -145 -60t-55 -148z" />
<glyph unicode="&#xa5;" d="M233 678h209l-450 756h239l359 -609l35 -131h4l39 135l342 605h217l-443 -756h211v-135h-278v-150h278v-135h-278v-258h-205v258h-279v135h279v150h-279v135z" />
<glyph unicode="&#xa6;" horiz-adv-x="528" d="M182 426h164v-692h-164v692zM346 741h-164v693h164v-693z" />
<glyph unicode="&#xa7;" horiz-adv-x="1134" d="M131 723q0 63 34 122.5t89 106.5l90 29q-57 31 -93 82t-36 133q0 117 92 190.5t260 73.5q127 0 215 -20.5t150 -48.5l-49 -158q-49 23 -126 43t-161 20q-98 0 -143 -30.5t-45 -83.5q0 -49 44 -76t110.5 -47.5t143 -41t143 -56t111 -95t44.5 -155.5q0 -63 -33 -121 t-88 -105l-103 -28q61 -33 100.5 -84t39.5 -135q0 -66 -27 -115t-75 -83t-112.5 -50.5t-138.5 -16.5q-135 0 -220 25t-146 53l49 154q53 -23 124.5 -45.5t164.5 -22.5q88 0 138 25.5t50 89.5q0 51 -44 78.5t-110.5 48t-143.5 41t-143.5 56.5t-110.5 93.5t-44 153.5zM809 707 q0 49 -28.5 80.5t-75 53t-105.5 38t-123 36.5q-61 -27 -106 -73.5t-45 -114.5q0 -49 26.5 -81t71.5 -52.5t103 -36.5l120 -35q29 12 57.5 30.5t52 43.5t38 52.5t14.5 58.5z" />
<glyph unicode="&#xa8;" horiz-adv-x="919" d="M123 1337q0 49 32.5 82t86.5 33q51 0 82.5 -33t31.5 -82q0 -47 -31.5 -79.5t-82.5 -32.5q-53 0 -86 32.5t-33 79.5zM563 1337q0 49 32 82t85 33t85 -33t32 -82q0 -47 -32 -79.5t-85 -32.5t-85 32.5t-32 79.5z" />
<glyph unicode="&#xa9;" horiz-adv-x="1777" d="M109 590q0 182 61 327.5t166.5 246t248 153.5t304.5 53t303 -53t247.5 -153.5t168 -246t61.5 -327.5t-61.5 -327.5t-168 -246t-247.5 -153.5t-303 -53q-178 0 -321.5 53t-246 153.5t-157.5 246t-55 327.5zM276 590q0 -150 47.5 -265.5t130.5 -194.5t194.5 -120t240.5 -41 t240.5 41t194.5 120t130 194.5t47 265.5t-47 265.5t-130 194t-194.5 119.5t-240.5 41t-240.5 -41t-194.5 -119.5t-130.5 -194t-47.5 -265.5zM1147 233q-49 -29 -114.5 -45t-149.5 -16q-178 0 -271.5 112.5t-93.5 305.5q0 201 99.5 309.5t265.5 108.5q41 0 72.5 -4.5 t60 -12.5t56.5 -19l61 -26l-60 -141q-47 23 -88 33t-74 10q-86 0 -142 -55.5t-56 -202.5q0 -121 54 -189.5t161 -68.5q53 0 94 10t76 29z" />
<glyph unicode="&#xaa;" horiz-adv-x="894" d="M160 1382q55 29 150.5 48.5t209.5 19.5q143 0 196.5 -54.5t53.5 -158.5q0 -78 -3 -148.5t-3 -136.5q0 -47 3 -91t13 -83h-141l-29 99h-8q-14 -16 -34.5 -36t-48 -35t-64.5 -25.5t-86 -10.5q-115 0 -184.5 53.5t-69.5 143.5q0 63 32.5 106t91 69.5t135.5 39t167 12.5 q16 0 30.5 -1t30.5 -1q8 74 -15.5 103.5t-111.5 29.5q-92 0 -167 -17.5t-115 -37.5zM602 1079q-25 2 -49.5 3t-48.5 1q-43 0 -83 -4t-69.5 -16t-47 -31.5t-17.5 -50.5q0 -39 30.5 -60.5t83.5 -21.5q47 0 82 10.5t58.5 26.5t38 35.5t22.5 38.5v69z" />
<glyph unicode="&#xab;" horiz-adv-x="1073" d="M496 532l356 461l119 -104l-207 -275l-107 -82l107 -73l219 -271l-119 -102zM82 530l360 471l123 -106l-209 -279l-108 -84l108 -73l224 -273l-125 -108z" />
<glyph unicode="&#xac;" horiz-adv-x="1134" d="M92 815h957v-412h-177v240h-780v172z" />
<glyph unicode="&#xad;" horiz-adv-x="806" d="M131 680h545v-176h-545v176z" />
<glyph unicode="&#xae;" horiz-adv-x="1538" d="M176 885q0 143 47 253.5t128 185.5t188.5 114t228.5 39q125 0 232.5 -39t187.5 -114t126 -185.5t46 -253.5t-47 -253t-128 -184.5t-188.5 -113.5t-228.5 -39q-123 0 -231.5 39t-188.5 113.5t-126 184.5t-46 253zM328 885q0 -113 35.5 -197t95 -139t139.5 -83t170 -28 q94 0 175 27t139.5 82t92 139t33.5 199q0 113 -34.5 196.5t-95 140t-140.5 84t-170 27.5q-96 0 -177 -28.5t-139.5 -85t-91 -140t-32.5 -194.5zM543 1171q35 10 99.5 16.5t119.5 6.5q45 0 86 -9t71.5 -29.5t49 -53.5t18.5 -80q0 -70 -46 -107.5t-112 -42.5l64 -30l158 -240 h-136l-153 229l-107 33v-262h-112v569zM737 1096q-23 0 -45 -1t-37 -10v-155h76q66 0 100.5 20.5t34.5 67.5q0 37 -34 57.5t-95 20.5z" />
<glyph unicode="&#xaf;" horiz-adv-x="917" d="M123 1364h672v-141h-672v141z" />
<glyph unicode="&#xb0;" horiz-adv-x="956" d="M184 1159q0 66 27 121t71 95t102 62.5t124 22.5t125 -20.5t103 -59.5t71 -95t27 -126t-27 -125t-71 -94t-103.5 -59.5t-124.5 -20.5q-66 0 -124 20.5t-102 59.5t-71 94t-27 125zM338 1159q0 -74 52 -113.5t118 -39.5q33 0 63.5 10t55 29.5t39 48t14.5 65.5t-14.5 65.5 t-39 49t-55 31t-63.5 10.5q-66 0 -118 -41t-52 -115z" />
<glyph unicode="&#xb1;" horiz-adv-x="1134" d="M88 1049h391v383h176v-383h392v-172h-392v-256h-176v256h-391v172zM88 516h959v-172h-959v172z" />
<glyph unicode="&#xb2;" horiz-adv-x="892" d="M727 1403q0 -61 -21.5 -116.5t-59.5 -109t-89 -105.5l-108 -105l-103 -62v-4l129 27h295v-150h-657v86q51 37 126.5 98.5t145.5 133t120 145.5t50 137q0 61 -42 91t-107 30q-61 0 -118 -21.5t-98 -45.5l-55 135q61 41 140 63.5t161 22.5q141 0 216 -66.5t75 -183.5z" />
<glyph unicode="&#xb3;" horiz-adv-x="892" d="M379 905q219 0 219 141q0 61 -50 99.5t-167 38.5h-117v53l207 219l78 53l-113 -12h-284v141h583v-82l-225 -235l-59 -37v-6l53 6q125 -2 194.5 -66.5t69.5 -175.5q0 -131 -102.5 -204.5t-268.5 -73.5q-82 0 -142 13t-108 30l37 139q39 -16 87.5 -28.5t107.5 -12.5z" />
<glyph unicode="&#xb4;" horiz-adv-x="589" d="M254 1475h213v-48l-229 -260h-115z" />
<glyph unicode="&#xb5;" horiz-adv-x="1302" d="M350 1075v-586q0 -180 58.5 -271t205.5 -91q135 0 227.5 79t127.5 206v663h188v-729q0 -86 5 -175t26 -171h-123l-68 176h-24q-25 -39 -62 -76t-84 -64.5t-106 -45t-127 -17.5q-109 0 -168 32t-102 83h-29l55 -246v-254h-188v1487h188z" />
<glyph unicode="&#x3bc;" horiz-adv-x="1302" d="M350 1075v-586q0 -180 58.5 -271t205.5 -91q135 0 227.5 79t127.5 206v663h188v-729q0 -86 5 -175t26 -171h-123l-68 176h-24q-25 -39 -62 -76t-84 -64.5t-106 -45t-127 -17.5q-109 0 -168 32t-102 83h-29l55 -246v-254h-188v1487h188z" />
<glyph unicode="&#xb6;" horiz-adv-x="1118" d="M770 1434h164v-1700h-164v1700zM414 629q-72 0 -132.5 34.5t-105.5 92t-69.5 130t-24.5 146.5t26.5 146.5t77 129t122 91.5t161.5 35h109v-1700h-164v895z" />
<glyph unicode="&#xb7;" horiz-adv-x="593" d="M160 616q0 59 38 94t99 35t99 -34.5t38 -94.5q0 -55 -38 -92t-99 -37t-99 37t-38 92z" />
<glyph unicode="&#xb8;" horiz-adv-x="665" d="M338 -109q100 -16 148.5 -53t48.5 -104q0 -86 -73 -138.5t-186 -52.5q-47 0 -78.5 8.5t-60.5 14.5l21 108q109 -29 155.5 -11t46.5 52q0 35 -52 54.5t-150 29.5l110 185h125z" />
<glyph unicode="&#xb9;" horiz-adv-x="892" d="M164 926h235v475l17 78l-62 -60l-170 -98l-65 121l344 211h108v-727h209v-148h-616v148z" />
<glyph unicode="&#xba;" horiz-adv-x="911" d="M102 1110q0 90 27 155.5t74 108.5t111.5 63.5t140.5 20.5t140 -19.5t112.5 -60.5t75 -107.5t26.5 -160.5t-26.5 -160.5t-75 -107.5t-113 -60.5t-139.5 -19.5q-76 0 -140.5 19.5t-111.5 60.5t-74 107.5t-27 160.5zM283 1110q0 -111 44 -163t128 -52q82 0 128 47t46 168 q0 123 -45 169t-129 46q-82 0 -127 -46t-45 -169z" />
<glyph unicode="&#xbb;" horiz-adv-x="1071" d="M575 547l-354 -461l-119 104l205 275l107 82l-107 74l-217 268l117 104zM989 549l-358 -471l-125 108l211 277l106 84l-106 74l-223 272l122 108z" />
<glyph unicode="&#xbc;" horiz-adv-x="1888" d="M1403 1462l123 -88l-1073 -1401l-123 93zM1763 189h-184v-189h-160v189h-459v92l506 612h113v-567h184v-137zM1419 572l14 98h-6l-49 -92l-164 -199l-76 -65l115 12h166v246zM362 1194l17 80l-62 -57l-170 -101l-67 119l346 213h106v-875h-170v621z" />
<glyph unicode="&#xbd;" horiz-adv-x="1914" d="M1403 1462l123 -88l-1073 -1401l-123 93zM1747 625q0 -61 -21.5 -116.5t-59.5 -109t-89 -105.5l-108 -105l-103 -62v-4l129 27h295v-150h-657v86q51 37 126.5 98.5t145.5 133t120 145.5t50 137q0 61 -42 91t-107 30q-61 0 -118 -21.5t-98 -45.5l-55 135q61 41 140 63.5 t161 22.5q141 0 216 -66.5t75 -183.5zM362 1194l17 80l-62 -57l-170 -101l-67 119l346 213h106v-875h-170v621z" />
<glyph unicode="&#xbe;" horiz-adv-x="1970" d="M1485 1462l123 -88l-1073 -1401l-123 93zM1845 189h-184v-189h-160v189h-459v92l506 612h113v-567h184v-137zM1501 572l14 98h-6l-49 -92l-164 -199l-76 -65l115 12h166v246zM356 700q219 0 219 141q0 61 -50 99.5t-167 38.5h-117v53l207 219l78 53l-113 -12h-284v141 h583v-82l-225 -235l-59 -37v-6l53 6q125 -2 194.5 -66.5t69.5 -175.5q0 -131 -102.5 -204.5t-268.5 -73.5q-82 0 -142 13t-108 30l37 139q39 -16 87.5 -28.5t107.5 -12.5z" />
<glyph unicode="&#xbf;" horiz-adv-x="978" d="M651 649q8 -100 -15.5 -171.5t-64.5 -128t-91 -102.5t-94 -92t-73.5 -97.5t-29.5 -120.5q0 -92 54 -147.5t189 -55.5q39 0 82 8t83 22.5t77 31t68 34.5l69 -145q-86 -53 -183 -84t-241 -31q-98 0 -174 25.5t-127 70.5t-76.5 106.5t-25.5 135.5q0 96 30.5 165.5t75.5 123 t99.5 98.5t99.5 95t75.5 111.5t30.5 147.5h162zM422 948q0 59 38 94t99 35t99 -34.5t38 -94.5q0 -55 -37.5 -92t-99.5 -37q-61 0 -99 37t-38 92z" />
<glyph unicode="&#xc0;" horiz-adv-x="1320" d="M936 375h-567l-152 -375h-201l590 1454h107l592 -1454h-213zM430 547h447l-166 407l-56 220h-4l-55 -224zM776 1540h-176l-354 195v47h270z" />
<glyph unicode="&#xc1;" horiz-adv-x="1320" d="M936 375h-567l-152 -375h-201l590 1454h107l592 -1454h-213zM430 547h447l-166 407l-56 220h-4l-55 -224zM803 1782h270v-47l-364 -195h-166z" />
<glyph unicode="&#xc2;" horiz-adv-x="1320" d="M936 375h-567l-152 -375h-201l590 1454h107l592 -1454h-213zM430 547h447l-166 407l-56 220h-4l-55 -224zM592 1782h149l285 -205v-51h-188l-133 96l-41 72l-43 -70l-144 -98h-184v53z" />
<glyph unicode="&#xc3;" horiz-adv-x="1320" d="M936 375h-567l-152 -375h-201l590 1454h107l592 -1454h-213zM430 547h447l-166 407l-56 220h-4l-55 -224zM301 1620q66 66 125 89.5t112 23.5q43 0 85 -11.5t81 -25t76 -24.5t74 -11q29 0 58.5 10t58.5 35l51 -104q-59 -49 -111.5 -67.5t-101.5 -18.5q-43 0 -84 10 t-80 23.5t-76 23.5t-74 10q-35 0 -71.5 -13.5t-73.5 -49.5z" />
<glyph unicode="&#xc4;" horiz-adv-x="1320" d="M936 375h-567l-152 -375h-201l590 1454h107l592 -1454h-213zM430 547h447l-166 407l-56 220h-4l-55 -224zM311 1628q0 47 33.5 74t93.5 27q57 0 92 -27t35 -74q0 -45 -35 -72.5t-92 -27.5q-59 0 -93 27.5t-34 72.5zM749 1628q0 47 34 74t91 27q59 0 94 -27t35 -74 q0 -45 -35 -72.5t-94 -27.5q-57 0 -91 27.5t-34 72.5z" />
<glyph unicode="&#xc5;" horiz-adv-x="1320" d="M420 1575q0 76 55 126t187 50q119 0 181 -45t62 -131q0 -63 -30.5 -96t-59.5 -45q-35 -18 -84 -27l574 -1407h-213l-156 375h-567l-152 -375h-201l572 1407q-45 8 -88 27q-20 10 -50 42.5t-30 98.5zM430 547h447l-166 407l-56 220h-4l-55 -224zM563 1575 q0 -31 22.5 -53.5t76.5 -22.5q100 0 100 76q0 37 -24.5 58.5t-75.5 21.5t-75 -21.5t-24 -58.5z" />
<glyph unicode="&#xc6;" horiz-adv-x="1902" d="M879 1210l-78 -217l-279 -434h365v651h-8zM887 387h-471l-246 -387h-221l934 1434h870v-177h-661v-436h604v-176h-604v-469h671v-176h-876v387z" />
<glyph unicode="&#xc7;" horiz-adv-x="1277" d="M1196 61q-57 -41 -138 -60t-175 -26l-49 -84q100 -16 148 -53t48 -104q0 -86 -75.5 -138.5t-211.5 -52.5q-27 0 -54 2t-56 9l18 73q72 -4 113 2t61.5 20.5t25.5 32t5 33.5q0 35 -52 54.5t-151 29.5l105 176q-131 6 -247 53.5t-203 139.5t-138 228t-51 321q0 201 61.5 342 t159.5 230t221 130t244 41q135 0 221 -14t145 -37l-45 -176q-100 47 -305 47q-92 0 -179 -29.5t-155.5 -96.5t-109.5 -174.5t-41 -262.5q0 -139 39 -243.5t107.5 -175.5t161.5 -106.5t204 -35.5q100 0 174 17t125 46z" />
<glyph unicode="&#xc8;" horiz-adv-x="1198" d="M182 1434h867v-177h-662v-436h604v-176h-604v-469h672v-176h-877v1434zM739 1540h-176l-354 195v47h270z" />
<glyph unicode="&#xc9;" horiz-adv-x="1198" d="M182 1434h867v-177h-662v-436h604v-176h-604v-469h672v-176h-877v1434zM729 1782h270v-47l-364 -195h-166z" />
<glyph unicode="&#xca;" horiz-adv-x="1198" d="M182 1434h867v-177h-662v-436h604v-176h-604v-469h672v-176h-877v1434zM535 1782h149l285 -205v-51h-188l-133 96l-41 72l-43 -70l-144 -98h-184v53z" />
<glyph unicode="&#xcb;" horiz-adv-x="1198" d="M182 1434h867v-177h-662v-436h604v-176h-604v-469h672v-176h-877v1434zM256 1628q0 47 33.5 74t93.5 27q57 0 92 -27t35 -74q0 -45 -35 -72.5t-92 -27.5q-59 0 -93 27.5t-34 72.5zM694 1628q0 47 34 74t91 27q59 0 94 -27t35 -74q0 -45 -35 -72.5t-94 -27.5 q-57 0 -91 27.5t-34 72.5z" />
<glyph unicode="&#xcc;" horiz-adv-x="815" d="M305 1298h-164v136h533v-136h-164v-1163h164v-135h-533v135h164v1163zM585 1540h-176l-354 195v47h270z" />
<glyph unicode="&#xcd;" horiz-adv-x="815" d="M305 1298h-164v136h533v-136h-164v-1163h164v-135h-533v135h164v1163zM518 1782h270v-47l-364 -195h-166z" />
<glyph unicode="&#xce;" horiz-adv-x="815" d="M305 1298h-164v136h533v-136h-164v-1163h164v-135h-533v135h164v1163zM340 1782h149l285 -205v-51h-188l-133 96l-41 72l-43 -70l-144 -98h-184v53z" />
<glyph unicode="&#xcf;" horiz-adv-x="815" d="M305 1298h-164v136h533v-136h-164v-1163h164v-135h-533v135h164v1163zM64 1628q0 47 33.5 74t93.5 27q57 0 92 -27t35 -74q0 -45 -35 -72.5t-92 -27.5q-59 0 -93 27.5t-34 72.5zM502 1628q0 47 34 74t91 27q59 0 94 -27t35 -74q0 -45 -35 -72.5t-94 -27.5q-57 0 -91 27.5 t-34 72.5z" />
<glyph unicode="&#xd0;" horiz-adv-x="1480" d="M0 807h199v627q41 6 95 9t112.5 5t115 3t103.5 1q188 0 326.5 -54.5t229.5 -150.5t136 -229t45 -291q0 -143 -42 -277.5t-134 -239t-236.5 -167.5t-349.5 -63q-35 0 -93 2l-120 4q-61 2 -113.5 5t-74.5 7v674h-199v135zM403 807h328v-135h-328v-504q10 -2 40 -3t63 -2 t61.5 -2t40.5 -1q154 0 257.5 48t166 128t88 181t25.5 210q0 92 -24.5 188.5t-84 175t-158 130t-247.5 51.5h-62q-33 0 -65.5 -2t-59 -4t-41.5 -4v-455z" />
<glyph unicode="&#xd1;" horiz-adv-x="1505" d="M481 911l-123 201h-8l25 -201v-911h-193v1454h115l731 -930l117 -190h10l-25 190v910h193v-1454h-115zM389 1620q66 66 125 89.5t112 23.5q43 0 85 -11.5t81 -25t76 -24.5t74 -11q29 0 58.5 10t58.5 35l51 -104q-59 -49 -111.5 -67.5t-101.5 -18.5q-43 0 -84 10t-80 23.5 t-76 23.5t-74 10q-35 0 -71.5 -13.5t-73.5 -49.5z" />
<glyph unicode="&#xd2;" horiz-adv-x="1529" d="M119 717q0 176 44 314t127 233.5t202.5 145.5t271.5 50q162 0 283.5 -54t202.5 -151.5t121 -234.5t40 -303q0 -176 -44 -314.5t-128 -233.5t-204 -145.5t-271 -50.5q-164 0 -285 54.5t-200.5 151.5t-119.5 234.5t-40 303.5zM336 717q0 -117 25.5 -219.5t78 -180 t133 -122.5t191.5 -45q199 0 314.5 137t115.5 430q0 115 -25.5 217t-78 180t-133 124t-193.5 46q-197 0 -312.5 -139t-115.5 -428zM919 1540h-176l-354 195v47h270z" />
<glyph unicode="&#xd3;" horiz-adv-x="1529" d="M119 717q0 176 44 314t127 233.5t202.5 145.5t271.5 50q162 0 283.5 -54t202.5 -151.5t121 -234.5t40 -303q0 -176 -44 -314.5t-128 -233.5t-204 -145.5t-271 -50.5q-164 0 -285 54.5t-200.5 151.5t-119.5 234.5t-40 303.5zM336 717q0 -117 25.5 -219.5t78 -180 t133 -122.5t191.5 -45q199 0 314.5 137t115.5 430q0 115 -25.5 217t-78 180t-133 124t-193.5 46q-197 0 -312.5 -139t-115.5 -428zM909 1782h270v-47l-364 -195h-166z" />
<glyph unicode="&#xd4;" horiz-adv-x="1529" d="M119 717q0 176 44 314t127 233.5t202.5 145.5t271.5 50q162 0 283.5 -54t202.5 -151.5t121 -234.5t40 -303q0 -176 -44 -314.5t-128 -233.5t-204 -145.5t-271 -50.5q-164 0 -285 54.5t-200.5 151.5t-119.5 234.5t-40 303.5zM336 717q0 -117 25.5 -219.5t78 -180 t133 -122.5t191.5 -45q199 0 314.5 137t115.5 430q0 115 -25.5 217t-78 180t-133 124t-193.5 46q-197 0 -312.5 -139t-115.5 -428zM692 1782h149l285 -205v-51h-188l-133 96l-41 72l-43 -70l-144 -98h-184v53z" />
<glyph unicode="&#xd5;" horiz-adv-x="1529" d="M119 717q0 176 44 314t127 233.5t202.5 145.5t271.5 50q162 0 283.5 -54t202.5 -151.5t121 -234.5t40 -303q0 -176 -44 -314.5t-128 -233.5t-204 -145.5t-271 -50.5q-164 0 -285 54.5t-200.5 151.5t-119.5 234.5t-40 303.5zM336 717q0 -117 25.5 -219.5t78 -180 t133 -122.5t191.5 -45q199 0 314.5 137t115.5 430q0 115 -25.5 217t-78 180t-133 124t-193.5 46q-197 0 -312.5 -139t-115.5 -428zM399 1620q66 66 125 89.5t112 23.5q43 0 85 -11.5t81 -25t76 -24.5t74 -11q29 0 58.5 10t58.5 35l51 -104q-59 -49 -111.5 -67.5 t-101.5 -18.5q-43 0 -84 10t-80 23.5t-76 23.5t-74 10q-35 0 -71.5 -13.5t-73.5 -49.5z" />
<glyph unicode="&#xd6;" horiz-adv-x="1529" d="M119 717q0 176 44 314t127 233.5t202.5 145.5t271.5 50q162 0 283.5 -54t202.5 -151.5t121 -234.5t40 -303q0 -176 -44 -314.5t-128 -233.5t-204 -145.5t-271 -50.5q-164 0 -285 54.5t-200.5 151.5t-119.5 234.5t-40 303.5zM336 717q0 -117 25.5 -219.5t78 -180 t133 -122.5t191.5 -45q199 0 314.5 137t115.5 430q0 115 -25.5 217t-78 180t-133 124t-193.5 46q-197 0 -312.5 -139t-115.5 -428zM416 1628q0 47 33.5 74t93.5 27q57 0 92 -27t35 -74q0 -45 -35 -72.5t-92 -27.5q-59 0 -93 27.5t-34 72.5zM854 1628q0 47 34 74t91 27 q59 0 94 -27t35 -74q0 -45 -35 -72.5t-94 -27.5q-57 0 -91 27.5t-34 72.5z" />
<glyph unicode="&#xd7;" horiz-adv-x="1134" d="M287 1077l282 -266l285 266l119 -129l-279 -254l279 -258l-119 -127l-285 266l-284 -268l-121 125l280 262l-276 254z" />
<glyph unicode="&#xd8;" horiz-adv-x="1529" d="M270 188q-78 98 -114.5 232.5t-36.5 296.5q0 176 44 314t127 233.5t202.5 145.5t271.5 50q121 0 217 -29.5t172 -84.5l90 116l125 -88l-104 -137q74 -98 110.5 -229t36.5 -291q0 -176 -44 -314.5t-128 -233.5t-204 -145.5t-271 -50.5q-231 0 -381 107l-82 -107l-125 93z M1030 1184q-49 47 -115.5 73.5t-150.5 26.5q-197 0 -312.5 -139t-115.5 -428q0 -98 17.5 -186.5t54.5 -159.5zM506 242q49 -43 113.5 -67.5t144.5 -24.5q199 0 314.5 137t115.5 430q0 94 -17.5 180t-52.5 158z" />
<glyph unicode="&#xd9;" horiz-adv-x="1454" d="M1079 1434h193v-936q0 -133 -38 -229.5t-107.5 -161t-165 -95t-211.5 -30.5q-276 0 -422 119.5t-146 355.5v977h205v-899q0 -209 91 -291t270 -82q172 0 251.5 90t79.5 289v893zM913 1540h-176l-354 195v47h270z" />
<glyph unicode="&#xda;" horiz-adv-x="1454" d="M1079 1434h193v-936q0 -133 -38 -229.5t-107.5 -161t-165 -95t-211.5 -30.5q-276 0 -422 119.5t-146 355.5v977h205v-899q0 -209 91 -291t270 -82q172 0 251.5 90t79.5 289v893zM868 1782h270v-47l-364 -195h-166z" />
<glyph unicode="&#xdb;" horiz-adv-x="1454" d="M1079 1434h193v-936q0 -133 -38 -229.5t-107.5 -161t-165 -95t-211.5 -30.5q-276 0 -422 119.5t-146 355.5v977h205v-899q0 -209 91 -291t270 -82q172 0 251.5 90t79.5 289v893zM668 1782h149l285 -205v-51h-188l-133 96l-41 72l-43 -70l-144 -98h-184v53z" />
<glyph unicode="&#xdc;" horiz-adv-x="1454" d="M1079 1434h193v-936q0 -133 -38 -229.5t-107.5 -161t-165 -95t-211.5 -30.5q-276 0 -422 119.5t-146 355.5v977h205v-899q0 -209 91 -291t270 -82q172 0 251.5 90t79.5 289v893zM387 1628q0 47 33.5 74t93.5 27q57 0 92 -27t35 -74q0 -45 -35 -72.5t-92 -27.5 q-59 0 -93 27.5t-34 72.5zM825 1628q0 47 34 74t91 27q59 0 94 -27t35 -74q0 -45 -35 -72.5t-94 -27.5q-57 0 -91 27.5t-34 72.5z" />
<glyph unicode="&#xdd;" horiz-adv-x="1263" d="M535 561l-521 873h240l358 -609l35 -131h4l39 135l342 605h217l-510 -871v-563h-204v561zM786 1782h270v-47l-364 -195h-166z" />
<glyph unicode="&#xde;" horiz-adv-x="1257" d="M182 1434h205v-152q88 6 182 6q104 0 212 -18.5t196 -67.5t144.5 -136t56.5 -224q0 -129 -51.5 -220.5t-136.5 -148.5t-194.5 -84t-226.5 -27q-12 0 -38 2l-53 2q-28 1 -53.5 3t-37.5 4v-373h-205v1434zM387 549q10 -4 33.5 -5t49.5 -3t49 -2h36q74 0 145.5 11t130 44 t94.5 92t36 154q0 82 -35 135t-90.5 84t-124 42t-136.5 11q-55 0 -107 -2t-81 -10v-551z" />
<glyph unicode="&#xdf;" horiz-adv-x="1386" d="M233 1124q0 158 113 246t309 88q117 0 200 -24.5t135 -65.5t76 -95t24 -114q0 -63 -20.5 -109t-51.5 -80t-67 -59.5t-66.5 -50t-51 -51.5t-20.5 -61q0 -45 35 -71t88 -44.5t114.5 -36.5t115 -51t88 -87.5t34.5 -142.5q0 -63 -27.5 -124.5t-81 -110.5t-132 -79t-181.5 -30 q-53 0 -95 4.5t-75.5 13.5t-64.5 21.5t-62 30.5l54 149q27 -14 53 -25t55 -18.5t63.5 -11.5t79.5 -4q39 0 79 11.5t72 33t51.5 51t19.5 66.5q0 61 -35 96t-88 56.5t-114.5 38t-115 45t-88 74.5t-34.5 128q0 61 20.5 103.5t51 75t67.5 58t67.5 51t51 56.5t20.5 74 q0 29 -11 55.5t-39 47t-74 32.5t-113 12q-131 0 -184.5 -50t-53.5 -179v-1067h-191v911h-184v164h184v49z" />
<glyph unicode="&#xe0;" horiz-adv-x="1191" d="M168 1008q184 88 457 88q123 0 197.5 -32t115.5 -81t54.5 -109.5t13.5 -119.5q0 -113 -8.5 -226.5t-8.5 -246.5q0 -78 7.5 -151t23.5 -134h-137l-52 164h-20q-23 -31 -55.5 -62.5t-77.5 -56.5t-103.5 -41t-134.5 -16t-139 21.5t-109.5 60t-73 95t-26.5 126.5 q0 92 40 159.5t103.5 110.5t144.5 63.5t161 20.5q63 0 107 -2t74 -5t50.5 -6t36.5 -5q4 31 6 53t2 57q0 57 -12 96t-40 62.5t-75 34t-115 10.5q-39 0 -86 -6t-94 -17.5t-93 -28t-83 -34.5zM809 487q-16 2 -34.5 6.5t-46.5 6.5t-65.5 4t-93.5 2q-127 0 -201.5 -45t-74.5 -154 q0 -82 58.5 -123t150.5 -41q68 0 120 17.5t90 43t61.5 57.5t35.5 63v163zM701 1167h-111l-260 260v48h225z" />
<glyph unicode="&#xe1;" horiz-adv-x="1191" d="M168 1008q184 88 457 88q123 0 197.5 -32t115.5 -81t54.5 -109.5t13.5 -119.5q0 -113 -8.5 -226.5t-8.5 -246.5q0 -78 7.5 -151t23.5 -134h-137l-52 164h-20q-23 -31 -55.5 -62.5t-77.5 -56.5t-103.5 -41t-134.5 -16t-139 21.5t-109.5 60t-73 95t-26.5 126.5 q0 92 40 159.5t103.5 110.5t144.5 63.5t161 20.5q63 0 107 -2t74 -5t50.5 -6t36.5 -5q4 31 6 53t2 57q0 57 -12 96t-40 62.5t-75 34t-115 10.5q-39 0 -86 -6t-94 -17.5t-93 -28t-83 -34.5zM809 487q-16 2 -34.5 6.5t-46.5 6.5t-65.5 4t-93.5 2q-127 0 -201.5 -45t-74.5 -154 q0 -82 58.5 -123t150.5 -41q68 0 120 17.5t90 43t61.5 57.5t35.5 63v163zM547 1475h213v-48l-229 -260h-115z" />
<glyph unicode="&#xe2;" horiz-adv-x="1191" d="M168 1008q184 88 457 88q123 0 197.5 -32t115.5 -81t54.5 -109.5t13.5 -119.5q0 -113 -8.5 -226.5t-8.5 -246.5q0 -78 7.5 -151t23.5 -134h-137l-52 164h-20q-23 -31 -55.5 -62.5t-77.5 -56.5t-103.5 -41t-134.5 -16t-139 21.5t-109.5 60t-73 95t-26.5 126.5 q0 92 40 159.5t103.5 110.5t144.5 63.5t161 20.5q63 0 107 -2t74 -5t50.5 -6t36.5 -5q4 31 6 53t2 57q0 57 -12 96t-40 62.5t-75 34t-115 10.5q-39 0 -86 -6t-94 -17.5t-93 -28t-83 -34.5zM809 487q-16 2 -34.5 6.5t-46.5 6.5t-65.5 4t-93.5 2q-127 0 -201.5 -45t-74.5 -154 q0 -82 58.5 -123t150.5 -41q68 0 120 17.5t90 43t61.5 57.5t35.5 63v163zM563 1583h84l129 -192l127 -191h-164l-92 141l-53 146l-64 -146l-98 -141h-156z" />
<glyph unicode="&#xe3;" horiz-adv-x="1191" d="M168 1008q184 88 457 88q123 0 197.5 -32t115.5 -81t54.5 -109.5t13.5 -119.5q0 -113 -8.5 -226.5t-8.5 -246.5q0 -78 7.5 -151t23.5 -134h-137l-52 164h-20q-23 -31 -55.5 -62.5t-77.5 -56.5t-103.5 -41t-134.5 -16t-139 21.5t-109.5 60t-73 95t-26.5 126.5 q0 92 40 159.5t103.5 110.5t144.5 63.5t161 20.5q63 0 107 -2t74 -5t50.5 -6t36.5 -5q4 31 6 53t2 57q0 57 -12 96t-40 62.5t-75 34t-115 10.5q-39 0 -86 -6t-94 -17.5t-93 -28t-83 -34.5zM809 487q-16 2 -34.5 6.5t-46.5 6.5t-65.5 4t-93.5 2q-127 0 -201.5 -45t-74.5 -154 q0 -82 58.5 -123t150.5 -41q68 0 120 17.5t90 43t61.5 57.5t35.5 63v163zM264 1425q66 72 119 97.5t100 25.5q37 0 71 -13t67.5 -30.5t67.5 -31t73 -13.5q51 0 110 49l46 -98q-55 -57 -103.5 -80.5t-89.5 -23.5q-39 0 -74 14t-68.5 30.5t-68.5 31t-74 14.5 q-33 0 -64.5 -12.5t-70.5 -49.5z" />
<glyph unicode="&#xe4;" horiz-adv-x="1191" d="M168 1008q184 88 457 88q123 0 197.5 -32t115.5 -81t54.5 -109.5t13.5 -119.5q0 -113 -8.5 -226.5t-8.5 -246.5q0 -78 7.5 -151t23.5 -134h-137l-52 164h-20q-23 -31 -55.5 -62.5t-77.5 -56.5t-103.5 -41t-134.5 -16t-139 21.5t-109.5 60t-73 95t-26.5 126.5 q0 92 40 159.5t103.5 110.5t144.5 63.5t161 20.5q63 0 107 -2t74 -5t50.5 -6t36.5 -5q4 31 6 53t2 57q0 57 -12 96t-40 62.5t-75 34t-115 10.5q-39 0 -86 -6t-94 -17.5t-93 -28t-83 -34.5zM809 487q-16 2 -34.5 6.5t-46.5 6.5t-65.5 4t-93.5 2q-127 0 -201.5 -45t-74.5 -154 q0 -82 58.5 -123t150.5 -41q68 0 120 17.5t90 43t61.5 57.5t35.5 63v163zM227 1337q0 49 32.5 82t86.5 33q51 0 82.5 -33t31.5 -82q0 -47 -31.5 -79.5t-82.5 -32.5q-53 0 -86 32.5t-33 79.5zM667 1337q0 49 32 82t85 33t85 -33t32 -82q0 -47 -32 -79.5t-85 -32.5t-85 32.5 t-32 79.5z" />
<glyph unicode="&#xe5;" horiz-adv-x="1191" d="M168 1008q184 88 457 88q123 0 197.5 -32t115.5 -81t54.5 -109.5t13.5 -119.5q0 -113 -8.5 -226.5t-8.5 -246.5q0 -78 7.5 -151t23.5 -134h-137l-52 164h-20q-23 -31 -55.5 -62.5t-77.5 -56.5t-103.5 -41t-134.5 -16t-139 21.5t-109.5 60t-73 95t-26.5 126.5 q0 92 40 159.5t103.5 110.5t144.5 63.5t161 20.5q63 0 107 -2t74 -5t50.5 -6t36.5 -5q4 31 6 53t2 57q0 57 -12 96t-40 62.5t-75 34t-115 10.5q-39 0 -86 -6t-94 -17.5t-93 -28t-83 -34.5zM809 487q-16 2 -34.5 6.5t-46.5 6.5t-65.5 4t-93.5 2q-127 0 -201.5 -45t-74.5 -154 q0 -82 58.5 -123t150.5 -41q68 0 120 17.5t90 43t61.5 57.5t35.5 63v163zM366 1399q0 86 59.5 140t163.5 54q98 0 165 -48t67 -146q0 -41 -17.5 -76t-48 -60.5t-73.5 -41t-93 -15.5q-98 0 -160.5 50.5t-62.5 142.5zM483 1399q0 -41 34 -66.5t72 -25.5q47 0 81 22.5t34 69.5 t-34.5 70.5t-80.5 23.5q-41 0 -73.5 -22.5t-32.5 -71.5z" />
<glyph unicode="&#xe6;" horiz-adv-x="1904" d="M813 483q-35 4 -73 3t-72 -1q-74 0 -141.5 -8t-120 -28.5t-83 -55.5t-30.5 -88q0 -74 58.5 -120t150.5 -46q68 0 119 16.5t89 41t63.5 54.5t39.5 58v174zM862 188q-31 -37 -71.5 -73.5t-92 -65.5t-116 -47t-142.5 -18q-76 0 -139 20.5t-109.5 59t-73 95t-26.5 126.5 q0 92 42 155.5t119 101.5t184.5 55t236.5 17q31 0 68.5 -1t72.5 3v7q6 49 6 108q0 115 -55 160t-191 45q-37 0 -83 -5t-94 -14.5t-94 -22.5t-83 -28l-51 135q86 43 205 69t252 26q117 0 198.5 -39t126.5 -105q33 39 77 68t93 48t102.5 28.5t102.5 9.5q82 0 162 -17.5 t143.5 -64.5t102.5 -133t39 -221q0 -29 -1 -65t-8 -89h-770q2 -92 23.5 -164.5t68 -123t119 -77t174.5 -26.5q78 0 156 24.5t129 63.5l68 -125q-70 -51 -180.5 -84t-225.5 -33q-143 0 -263 57.5t-179 159.5h-23zM1591 651q2 82 -15 138.5t-52 91t-84 50t-111 15.5 q-141 0 -223 -67.5t-102 -227.5h587z" />
<glyph unicode="&#xe7;" horiz-adv-x="1083" d="M991 74q-66 -47 -151.5 -72t-182.5 -29l-47 -82q100 -16 148.5 -53t48.5 -104q0 -86 -76 -138.5t-211 -52.5q-27 0 -54.5 2t-55.5 9l18 73q72 -4 113 2t61.5 20.5t25.5 32t5 33.5q0 35 -52.5 54.5t-150.5 29.5l107 178q-113 12 -192 57.5t-128 118t-71.5 170t-22.5 214.5 q0 272 132 420.5t380 148.5q109 0 188.5 -19.5t143.5 -48.5l-49 -153q-55 29 -120 45t-141 16q-334 0 -333 -409q0 -78 18 -150t59 -129t107.5 -91t163.5 -34q86 0 150.5 23.5t107.5 56.5z" />
<glyph unicode="&#xe8;" horiz-adv-x="1224" d="M1055 88q-72 -53 -178.5 -85t-231.5 -32q-135 0 -234.5 40t-163 114t-94 178.5t-30.5 233.5q0 276 136 422.5t388 146.5q80 0 160 -17.5t143.5 -65.5t103.5 -132t40 -219q0 -33 -2 -76t-9 -84h-768q4 -188 90.5 -284.5t292.5 -96.5q86 0 164 29.5t121 70.5zM913 647 q0 9 1 18q0 150 -67 214q-71 68 -198 67q-143 0 -227 -67.5t-98 -231.5h589zM764 1167h-111l-260 260v48h225z" />
<glyph unicode="&#xe9;" horiz-adv-x="1224" d="M1055 88q-72 -53 -178.5 -85t-231.5 -32q-135 0 -234.5 40t-163 114t-94 178.5t-30.5 233.5q0 276 136 422.5t388 146.5q80 0 160 -17.5t143.5 -65.5t103.5 -132t40 -219q0 -33 -2 -76t-9 -84h-768q4 -188 90.5 -284.5t292.5 -96.5q86 0 164 29.5t121 70.5zM913 647 q0 9 1 18q0 150 -67 214q-71 68 -198 67q-143 0 -227 -67.5t-98 -231.5h589zM674 1475h213v-48l-229 -260h-115z" />
<glyph unicode="&#xea;" horiz-adv-x="1224" d="M1055 88q-72 -53 -178.5 -85t-231.5 -32q-135 0 -234.5 40t-163 114t-94 178.5t-30.5 233.5q0 276 136 422.5t388 146.5q80 0 160 -17.5t143.5 -65.5t103.5 -132t40 -219q0 -33 -2 -76t-9 -84h-768q4 -188 90.5 -284.5t292.5 -96.5q86 0 164 29.5t121 70.5zM913 647 q0 9 1 18q0 150 -67 214q-71 68 -198 67q-143 0 -227 -67.5t-98 -231.5h589zM582 1583h84l129 -192l127 -191h-164l-92 141l-53 146l-64 -146l-98 -141h-156z" />
<glyph unicode="&#xeb;" horiz-adv-x="1224" d="M1055 88q-72 -53 -178.5 -85t-231.5 -32q-135 0 -234.5 40t-163 114t-94 178.5t-30.5 233.5q0 276 136 422.5t388 146.5q80 0 160 -17.5t143.5 -65.5t103.5 -132t40 -219q0 -33 -2 -76t-9 -84h-768q4 -188 90.5 -284.5t292.5 -96.5q86 0 164 29.5t121 70.5zM913 647 q0 9 1 18q0 150 -67 214q-71 68 -198 67q-143 0 -227 -67.5t-98 -231.5h589zM324 1337q0 49 32.5 82t86.5 33q51 0 82.5 -33t31.5 -82q0 -47 -31.5 -79.5t-82.5 -32.5q-53 0 -86 32.5t-33 79.5zM764 1337q0 49 32 82t85 33t85 -33t32 -82q0 -47 -32 -79.5t-85 -32.5 t-85 32.5t-32 79.5z" />
<glyph unicode="&#xec;" horiz-adv-x="649" d="M233 1075h189v-1075h-189v1075zM392 1167h-111l-260 260v48h225z" />
<glyph unicode="&#xed;" horiz-adv-x="649" d="M233 1075h189v-1075h-189v1075zM358 1475h213v-48l-229 -260h-115z" />
<glyph unicode="&#xee;" horiz-adv-x="649" d="M233 1075h189v-1075h-189v1075zM285 1583h84l129 -192l127 -191h-164l-92 141l-53 146l-64 -146l-98 -141h-156z" />
<glyph unicode="&#xef;" horiz-adv-x="649" d="M233 1075h189v-1075h-189v1075zM-8 1337q0 49 32.5 82t86.5 33q51 0 82.5 -33t31.5 -82q0 -47 -31.5 -79.5t-82.5 -32.5q-53 0 -86 32.5t-33 79.5zM432 1337q0 49 32 82t85 33t85 -33t32 -82q0 -47 -32 -79.5t-85 -32.5t-85 32.5t-32 79.5z" />
<glyph unicode="&#xf0;" horiz-adv-x="1320" d="M889 1370q141 -123 225 -305t84 -416q0 -176 -42 -303t-114.5 -211t-171 -124t-208.5 -40q-141 0 -243 47.5t-168.5 125t-97 179t-30.5 212.5q0 106 36 205.5t103.5 177t166.5 125t226 47.5q102 0 171 -26t110 -65l14 7q-41 82 -89 147.5t-107 118.5l-136 -101l-77 82 l123 90q-59 41 -121 69t-127 48l168 78q111 -35 211 -96l131 98l71 -90zM324 530q0 -195 97 -297t253 -102q72 0 133 28.5t106 88t71 152t26 218.5q0 41 -2 91.5t-13 78.5q-20 37 -55 64t-78 44t-91 25.5t-91 8.5q-94 0 -161.5 -32t-110.5 -87t-63.5 -128t-20.5 -153z" />
<glyph unicode="&#xf1;" horiz-adv-x="1312" d="M944 0v594q0 172 -55 258t-197 86q-125 0 -208 -64.5t-115 -164.5v-709h-189v1075h131l37 -143h19q59 74 154 124t229 50q94 0 165.5 -21.5t119.5 -76t73 -145.5t25 -230v-633h-189zM317 1425q66 72 119 97.5t100 25.5q37 0 71 -13t67.5 -30.5t67.5 -31t73 -13.5 q51 0 110 49l46 -98q-55 -57 -103.5 -80.5t-89.5 -23.5q-39 0 -74 14t-68.5 30.5t-68.5 31t-74 14.5q-33 0 -64.5 -12.5t-70.5 -49.5z" />
<glyph unicode="&#xf2;" horiz-adv-x="1292" d="M123 537q0 133 35 238.5t102.5 179t164.5 112.5t222 39q131 0 229.5 -43t164 -120t97 -180.5t31.5 -225.5q0 -131 -35.5 -235.5t-102 -178.5t-164 -113t-220.5 -39q-135 0 -233.5 43t-163 119t-96 179.5t-31.5 224.5zM324 537q0 -76 17 -149t56 -130t100.5 -92t151.5 -35 q319 0 320 406q0 80 -17.5 153.5t-55.5 130t-99.5 91t-147.5 34.5q-160 0 -242.5 -101t-82.5 -308zM738 1167h-111l-260 260v48h225z" />
<glyph unicode="&#xf3;" horiz-adv-x="1292" d="M123 537q0 133 35 238.5t102.5 179t164.5 112.5t222 39q131 0 229.5 -43t164 -120t97 -180.5t31.5 -225.5q0 -131 -35.5 -235.5t-102 -178.5t-164 -113t-220.5 -39q-135 0 -233.5 43t-163 119t-96 179.5t-31.5 224.5zM324 537q0 -76 17 -149t56 -130t100.5 -92t151.5 -35 q319 0 320 406q0 80 -17.5 153.5t-55.5 130t-99.5 91t-147.5 34.5q-160 0 -242.5 -101t-82.5 -308zM666 1475h213v-48l-229 -260h-115z" />
<glyph unicode="&#xf4;" horiz-adv-x="1292" d="M123 537q0 133 35 238.5t102.5 179t164.5 112.5t222 39q131 0 229.5 -43t164 -120t97 -180.5t31.5 -225.5q0 -131 -35.5 -235.5t-102 -178.5t-164 -113t-220.5 -39q-135 0 -233.5 43t-163 119t-96 179.5t-31.5 224.5zM324 537q0 -76 17 -149t56 -130t100.5 -92t151.5 -35 q319 0 320 406q0 80 -17.5 153.5t-55.5 130t-99.5 91t-147.5 34.5q-160 0 -242.5 -101t-82.5 -308zM612 1583h84l129 -192l127 -191h-164l-92 141l-53 146l-64 -146l-98 -141h-156z" />
<glyph unicode="&#xf5;" horiz-adv-x="1292" d="M123 537q0 133 35 238.5t102.5 179t164.5 112.5t222 39q131 0 229.5 -43t164 -120t97 -180.5t31.5 -225.5q0 -131 -35.5 -235.5t-102 -178.5t-164 -113t-220.5 -39q-135 0 -233.5 43t-163 119t-96 179.5t-31.5 224.5zM324 537q0 -76 17 -149t56 -130t100.5 -92t151.5 -35 q319 0 320 406q0 80 -17.5 153.5t-55.5 130t-99.5 91t-147.5 34.5q-160 0 -242.5 -101t-82.5 -308zM317 1425q66 72 119 97.5t100 25.5q37 0 71 -13t67.5 -30.5t67.5 -31t73 -13.5q51 0 110 49l46 -98q-55 -57 -103.5 -80.5t-89.5 -23.5q-39 0 -74 14t-68.5 30.5t-68.5 31 t-74 14.5q-33 0 -64.5 -12.5t-70.5 -49.5z" />
<glyph unicode="&#xf6;" horiz-adv-x="1292" d="M123 537q0 133 35 238.5t102.5 179t164.5 112.5t222 39q131 0 229.5 -43t164 -120t97 -180.5t31.5 -225.5q0 -131 -35.5 -235.5t-102 -178.5t-164 -113t-220.5 -39q-135 0 -233.5 43t-163 119t-96 179.5t-31.5 224.5zM324 537q0 -76 17 -149t56 -130t100.5 -92t151.5 -35 q319 0 320 406q0 80 -17.5 153.5t-55.5 130t-99.5 91t-147.5 34.5q-160 0 -242.5 -101t-82.5 -308zM281 1337q0 49 32.5 82t86.5 33q51 0 82.5 -33t31.5 -82q0 -47 -31.5 -79.5t-82.5 -32.5q-53 0 -86 32.5t-33 79.5zM721 1337q0 49 32 82t85 33t85 -33t32 -82 q0 -47 -32 -79.5t-85 -32.5t-85 32.5t-32 79.5z" />
<glyph unicode="&#xf7;" horiz-adv-x="1134" d="M88 776h959v-172h-959v172zM430 1075q0 59 38 94t99 35t99.5 -34.5t38.5 -94.5q0 -55 -38 -92t-100 -37q-61 0 -99 37t-38 92zM430 305q0 59 38 94t99 35t99.5 -34.5t38.5 -94.5q0 -55 -38 -92t-100 -37q-61 0 -99 37t-38 92z" />
<glyph unicode="&#xf8;" horiz-adv-x="1255" d="M221 150q-57 74 -84.5 171t-27.5 214q0 268 136 418.5t388 150.5q88 0 159.5 -18.5t129.5 -53.5l61 76l111 -90l-64 -80q61 -76 92 -178.5t31 -224.5q0 -268 -136 -416t-384 -148q-94 0 -170 20.5t-135 59.5l-64 -84l-117 90zM436 195q76 -63 197 -64q319 0 319 404 q0 68 -12 132t-41 117zM817 885q-35 29 -81 44t-103 15q-324 0 -324 -409q0 -61 11.5 -121t35.5 -111z" />
<glyph unicode="&#xf9;" horiz-adv-x="1318" d="M369 1075v-592q0 -86 10 -151.5t36.5 -109.5t73 -67.5t117.5 -23.5q123 0 201 69.5t119 172.5v702h188v-770q0 -78 6 -158.5t19 -146.5h-127l-49 178h-21q-53 -92 -147.5 -149.5t-235.5 -57.5q-94 0 -164.5 22.5t-119 77t-72 144.5t-23.5 225v635h189zM723 1167h-111 l-260 260v48h225z" />
<glyph unicode="&#xfa;" horiz-adv-x="1318" d="M369 1075v-592q0 -86 10 -151.5t36.5 -109.5t73 -67.5t117.5 -23.5q123 0 201 69.5t119 172.5v702h188v-770q0 -78 6 -158.5t19 -146.5h-127l-49 178h-21q-53 -92 -147.5 -149.5t-235.5 -57.5q-94 0 -164.5 22.5t-119 77t-72 144.5t-23.5 225v635h189zM668 1475h213v-48 l-229 -260h-115z" />
<glyph unicode="&#xfb;" horiz-adv-x="1318" d="M369 1075v-592q0 -86 10 -151.5t36.5 -109.5t73 -67.5t117.5 -23.5q123 0 201 69.5t119 172.5v702h188v-770q0 -78 6 -158.5t19 -146.5h-127l-49 178h-21q-53 -92 -147.5 -149.5t-235.5 -57.5q-94 0 -164.5 22.5t-119 77t-72 144.5t-23.5 225v635h189zM631 1583h84 l129 -192l127 -191h-164l-92 141l-53 146l-64 -146l-98 -141h-156z" />
<glyph unicode="&#xfc;" horiz-adv-x="1318" d="M369 1075v-592q0 -86 10 -151.5t36.5 -109.5t73 -67.5t117.5 -23.5q123 0 201 69.5t119 172.5v702h188v-770q0 -78 6 -158.5t19 -146.5h-127l-49 178h-21q-53 -92 -147.5 -149.5t-235.5 -57.5q-94 0 -164.5 22.5t-119 77t-72 144.5t-23.5 225v635h189zM295 1337 q0 49 32.5 82t86.5 33q51 0 82.5 -33t31.5 -82q0 -47 -31.5 -79.5t-82.5 -32.5q-53 0 -86 32.5t-33 79.5zM735 1337q0 49 32 82t85 33t85 -33t32 -82q0 -47 -32 -79.5t-85 -32.5t-85 32.5t-32 79.5z" />
<glyph unicode="&#xfd;" horiz-adv-x="1087" d="M514 395l64 -207h26l51 209l224 678h192l-352 -973l-79 -194q-40 -94 -88 -167t-106.5 -117t-134.5 -44q-82 0 -139 19l31 159q31 -10 61 -10q41 0 75 10.5t62.5 37t52 74.5t44.5 124l-482 1081h224zM621 1475h213v-48l-229 -260h-115z" />
<glyph unicode="&#xfe;" horiz-adv-x="1290" d="M180 1436h189v-482h16q53 70 130 110t187 40q233 0 349 -129t116 -414q0 -135 -38.5 -244.5t-109.5 -186.5t-171 -118t-225 -41q-41 0 -72 3t-60.5 9.5t-58.5 16.5l-63 23v-433h-189v1846zM659 944q-227 0 -290 -254v-485q43 -33 102 -53.5t139 -20.5q166 0 261.5 108.5 t95.5 323.5q0 86 -16.5 157t-53.5 120t-95.5 76.5t-142.5 27.5z" />
<glyph unicode="&#xff;" horiz-adv-x="1087" d="M514 395l64 -207h26l51 209l224 678h192l-352 -973l-79 -194q-40 -94 -88 -167t-106.5 -117t-134.5 -44q-82 0 -139 19l31 159q31 -10 61 -10q41 0 75 10.5t62.5 37t52 74.5t44.5 124l-482 1081h224zM182 1337q0 49 32.5 82t86.5 33q51 0 82.5 -33t31.5 -82 q0 -47 -31.5 -79.5t-82.5 -32.5q-53 0 -86 32.5t-33 79.5zM622 1337q0 49 32 82t85 33t85 -33t32 -82q0 -47 -32 -79.5t-85 -32.5t-85 32.5t-32 79.5z" />
<glyph unicode="&#x131;" horiz-adv-x="649" d="M233 1075h189v-1075h-189v1075z" />
<glyph unicode="&#x152;" horiz-adv-x="2086" d="M1069 1239q-59 23 -139 34t-166 11q-199 0 -313.5 -139t-114.5 -428q0 -117 25.5 -219.5t79 -180t138.5 -122.5t201 -45q66 0 133.5 5t155.5 31v1053zM1069 0q-53 -12 -131 -19.5t-172 -7.5q-166 0 -288 53.5t-201.5 151.5t-118.5 235.5t-39 303.5q0 356 170 549.5 t477 193.5q100 0 169 -8t134 -18h866v-177h-661v-436h606v-176h-606v-469h674v-176h-879z" />
<glyph unicode="&#x153;" horiz-adv-x="2056" d="M319 535q0 -80 17.5 -153t56.5 -128t100.5 -89t149.5 -34q160 0 242 96.5t82 307.5q0 82 -17.5 156.5t-56.5 131t-100.5 89t-149.5 32.5q-160 0 -242 -99t-82 -310zM1044 168q-61 -90 -163.5 -143.5t-237.5 -53.5q-133 0 -231.5 42t-163 118t-95 178.5t-30.5 225.5 q0 272 134 420.5t386 148.5q82 0 144.5 -11.5t111.5 -36t87 -63.5t73 -92q70 90 174 146.5t246 56.5q80 0 159.5 -17.5t143 -65.5t103.5 -132t40 -217q0 -31 -1 -72t-11 -88h-766q2 -94 23.5 -166t66.5 -121t116.5 -73.5t174.5 -24.5q80 0 155.5 23.5t128.5 62.5l68 -127 q-72 -53 -177.5 -84t-223.5 -31q-143 0 -249 51.5t-171 145.5h-15zM1741 647q4 162 -66.5 231.5t-193.5 69.5q-141 0 -224 -69.5t-100 -231.5h584z" />
<glyph unicode="&#x178;" horiz-adv-x="1263" d="M535 561l-521 873h240l358 -609l35 -131h4l39 135l342 605h217l-510 -871v-563h-204v561zM291 1628q0 47 33.5 74t93.5 27q57 0 92 -27t35 -74q0 -45 -35 -72.5t-92 -27.5q-59 0 -93 27.5t-34 72.5zM729 1628q0 47 34 74t91 27q59 0 94 -27t35 -74q0 -45 -35 -72.5 t-94 -27.5q-57 0 -91 27.5t-34 72.5z" />
<glyph unicode="&#x237;" horiz-adv-x="638" d="M229 1075h189v-1112q0 -199 -75 -296t-241 -97h-35q-19 0 -42 4v156q68 -2 107.5 16t61 56t28.5 94.5t7 134.5v1044z" />
<glyph unicode="&#x2c6;" horiz-adv-x="903" d="M428 1583h84l129 -192l127 -191h-164l-92 141l-53 146l-64 -146l-98 -141h-156z" />
<glyph unicode="&#x2d9;" horiz-adv-x="516" d="M123 1331q0 47 37 85t96 38t98 -38t39 -85t-39 -83t-98 -36t-96 36t-37 83z" />
<glyph unicode="&#x2da;" horiz-adv-x="722" d="M137 1399q0 86 59.5 140t163.5 54q98 0 165 -48t67 -146q0 -41 -17.5 -76t-48 -60.5t-73.5 -41t-93 -15.5q-98 0 -160.5 50.5t-62.5 142.5zM254 1399q0 -41 34 -66.5t72 -25.5q47 0 81 22.5t34 69.5t-34.5 70.5t-80.5 23.5q-41 0 -73.5 -22.5t-32.5 -71.5z" />
<glyph unicode="&#x2dc;" horiz-adv-x="921" d="M137 1425q66 72 119 97.5t100 25.5q37 0 71 -13t67.5 -30.5t67.5 -31t73 -13.5q51 0 110 49l46 -98q-55 -57 -103.5 -80.5t-89.5 -23.5q-39 0 -74 14t-68.5 30.5t-68.5 31t-74 14.5q-33 0 -64.5 -12.5t-70.5 -49.5z" />
<glyph unicode="&#x2000;" horiz-adv-x="890" />
<glyph unicode="&#x2001;" horiz-adv-x="1781" />
<glyph unicode="&#x2002;" horiz-adv-x="890" />
<glyph unicode="&#x2003;" horiz-adv-x="1781" />
<glyph unicode="&#x2004;" horiz-adv-x="593" />
<glyph unicode="&#x2005;" horiz-adv-x="444" />
<glyph unicode="&#x2006;" horiz-adv-x="296" />
<glyph unicode="&#x2007;" horiz-adv-x="296" />
<glyph unicode="&#x2008;" horiz-adv-x="221" />
<glyph unicode="&#x2009;" horiz-adv-x="356" />
<glyph unicode="&#x200a;" horiz-adv-x="98" />
<glyph unicode="&#x2010;" horiz-adv-x="806" d="M131 680h545v-176h-545v176z" />
<glyph unicode="&#x2011;" horiz-adv-x="806" d="M131 680h545v-176h-545v176z" />
<glyph unicode="&#x2012;" horiz-adv-x="806" d="M131 680h545v-176h-545v176z" />
<glyph unicode="&#x2013;" horiz-adv-x="1482" d="M262 678h959v-176h-959v176z" />
<glyph unicode="&#x2014;" horiz-adv-x="1841" d="M262 678h1317v-176h-1317v176z" />
<glyph unicode="&#x2018;" horiz-adv-x="444" d="M356 1268q0 -49 -34.5 -78t-88.5 -29q-66 0 -104.5 39t-38.5 115q0 70 21.5 121t52.5 84.5t65.5 54t61.5 29.5l55 -82q-49 -23 -79.5 -60t-26.5 -90q53 10 84.5 -20.5t31.5 -83.5z" />
<glyph unicode="&#x2019;" horiz-adv-x="444" d="M90 1341q0 49 34 79t87 30q66 0 105.5 -39t39.5 -115q0 -72 -22.5 -123t-54 -85.5t-66.5 -54t-59 -27.5l-58 84q49 23 81 58.5t30 88.5q-53 -10 -85 20.5t-32 83.5z" />
<glyph unicode="&#x201a;" horiz-adv-x="444" d="M90 104q0 49 34 79t87 30q66 0 105.5 -39t39.5 -115q0 -72 -22.5 -123t-54 -85.5t-66.5 -54t-59 -27.5l-58 84q49 23 81 58.5t30 88.5q-53 -10 -85 20.5t-32 83.5z" />
<glyph unicode="&#x201c;" horiz-adv-x="776" d="M688 1268q0 -49 -35 -78t-88 -29q-66 0 -104.5 39t-38.5 115q0 70 21.5 121t52 84.5t65.5 54t62 29.5l55 -82q-49 -23 -80 -60t-27 -90q53 10 85 -20.5t32 -83.5zM356 1268q0 -49 -34.5 -78t-88.5 -29q-66 0 -104.5 39t-38.5 115q0 70 21.5 121t52.5 84.5t65.5 54 t61.5 29.5l55 -82q-49 -23 -79.5 -60t-26.5 -90q53 10 84.5 -20.5t31.5 -83.5z" />
<glyph unicode="&#x201d;" horiz-adv-x="776" d="M422 1339q0 49 33.5 79t87.5 30q66 0 105.5 -39t39.5 -115q0 -72 -22.5 -123t-54 -85.5t-66.5 -54t-60 -27.5l-57 83q49 23 81 59t30 89q-53 -10 -85 20.5t-32 83.5zM90 1339q0 49 34 79t87 30q66 0 105.5 -39t39.5 -115q0 -72 -22.5 -123t-54 -85.5t-66.5 -54t-59 -27.5 l-58 83q49 23 81 59t30 89q-53 -10 -85 20.5t-32 83.5z" />
<glyph unicode="&#x201e;" horiz-adv-x="776" d="M90 104q0 49 34 79t87 30q66 0 105.5 -39t39.5 -115q0 -72 -22.5 -123t-54 -85.5t-66.5 -54t-59 -27.5l-58 84q49 23 81 58.5t30 88.5q-53 -10 -85 20.5t-32 83.5zM422 104q0 49 33.5 79t87.5 30q66 0 105.5 -39t39.5 -115q0 -72 -22.5 -123t-54 -85.5t-66.5 -54 t-60 -27.5l-57 84q49 23 81 58.5t30 88.5q-53 -10 -85 20.5t-32 83.5z" />
<glyph unicode="&#x2022;" horiz-adv-x="1013" d="M190 637q0 63 26 116.5t69 92.5t100 60.5t121 21.5q63 0 121.5 -20.5t101.5 -57.5t68.5 -91t25.5 -122t-25.5 -122t-68.5 -91t-100.5 -57.5t-120.5 -20.5q-66 0 -123 20.5t-100 57.5t-69 91t-26 122z" />
<glyph unicode="&#x2026;" horiz-adv-x="1679" d="M1266 104q0 59 37.5 94t99.5 35q61 0 99 -34.5t38 -94.5q0 -55 -38 -92t-99 -37t-99 37t-38 92zM707 104q0 59 37.5 94t99.5 35q61 0 99 -34.5t38 -94.5q0 -55 -38 -92t-99 -37t-99 37t-38 92zM147 104q0 59 38 94t100 35q61 0 99 -34.5t38 -94.5q0 -55 -38 -92t-99 -37 t-99.5 37t-38.5 92z" />
<glyph unicode="&#x202f;" horiz-adv-x="356" />
<glyph unicode="&#x2039;" horiz-adv-x="667" d="M82 530l360 471l121 -108l-207 -277l-108 -84l108 -73l222 -271l-123 -110z" />
<glyph unicode="&#x203a;" horiz-adv-x="667" d="M586 549l-361 -471l-123 106l209 279l109 84l-109 74l-221 272l123 108z" />
<glyph unicode="&#x2044;" horiz-adv-x="411" d="M682 1462l123 -88l-1073 -1401l-123 93z" />
<glyph unicode="&#x205f;" horiz-adv-x="444" />
<glyph unicode="&#x2081;" horiz-adv-x="892" d="M164 -57h235v475l17 78l-62 -60l-170 -98l-65 121l344 211h108v-727h209v-148h-616v148z" />
<glyph unicode="&#x2082;" horiz-adv-x="892" d="M727 420q0 -61 -21.5 -116.5t-59.5 -109t-89 -105.5l-108 -105l-103 -62v-4l129 27h295v-150h-657v86q51 37 126.5 98.5t145.5 133t120 145.5t50 137q0 61 -42 91t-107 30q-61 0 -118 -21.5t-98 -45.5l-55 135q61 41 140 63.5t161 22.5q141 0 216 -66.5t75 -183.5z" />
<glyph unicode="&#x2083;" horiz-adv-x="892" d="M379 -78q219 0 219 141q0 61 -50 99.5t-167 38.5h-117v53l207 219l78 53l-113 -12h-284v141h583v-82l-225 -235l-59 -37v-6l53 6q125 -2 194.5 -66.5t69.5 -175.5q0 -131 -102.5 -204.5t-268.5 -73.5q-82 0 -142 13t-108 30l37 139q39 -16 87.5 -28.5t107.5 -12.5z" />
<glyph unicode="&#x2084;" horiz-adv-x="892" d="M858 -16h-184v-189h-160v189h-459v92l506 612h113v-567h184v-137zM514 367l14 98h-6l-49 -92l-164 -199l-76 -65l115 12h166v246z" />
<glyph unicode="&#x20ac;" d="M57 946h142q27 135 86 232.5t141 160t183.5 92t213.5 29.5q117 0 201 -16.5t145 -38.5l-55 -164q-51 23 -119.5 35t-167.5 12q-74 0 -141.5 -18.5t-122.5 -60.5t-97 -106.5t-65 -156.5h625l-41 -149l-604 -2q-2 -20 -2 -40v-40v-37q0 -18 2 -35l559 2l-41 -153h-500 q86 -346 459 -347q90 0 161 20.5t124 49.5l47 -152q-68 -51 -170 -70.5t-201 -19.5q-250 0 -412.5 126t-209.5 393h-183l43 153h123q-2 16 -2 35v37v40q0 19 2 40h-166z" />
<glyph unicode="&#x2122;" horiz-adv-x="1996" d="M870 1270h-299v-574h-194v574h-299v164h792v-164zM1733 1028l24 211h-10l-86 -174l-191 -277h-88l-192 275l-82 176h-10l32 -209v-334h-174v738h191l231 -338l62 -121h2l65 125l215 334h193v-738h-182v332z" />
<glyph unicode="&#xe000;" horiz-adv-x="1075" d="M0 1075h1075v-1075h-1075v1075z" />
<glyph unicode="&#xf408;" horiz-adv-x="978" d="M422 1782h149l285 -205v-51h-188l-133 96l-41 72l-43 -70l-144 -98h-184v53z" />
<glyph unicode="&#xf40d;" horiz-adv-x="966" d="M123 1620q66 66 125 89.5t112 23.5q43 0 85 -11.5t81 -25t76 -24.5t74 -11q29 0 58.5 10t58.5 35l51 -104q-59 -49 -111.5 -67.5t-101.5 -18.5q-43 0 -84 10t-80 23.5t-76 23.5t-74 10q-35 0 -71.5 -13.5t-73.5 -49.5z" />
<glyph unicode="&#xf662;" horiz-adv-x="892" d="M397 1194l17 80l-62 -57l-170 -101l-67 119l346 213h106v-875h-170v621z" />
<glyph unicode="&#xf6c9;" horiz-adv-x="776" d="M383 1782h270v-47l-364 -195h-166z" />
<glyph unicode="&#xf6cb;" horiz-adv-x="937" d="M123 1628q0 47 33.5 74t93.5 27q57 0 92 -27t35 -74q0 -45 -35 -72.5t-92 -27.5q-59 0 -93 27.5t-34 72.5zM561 1628q0 47 34 74t91 27q59 0 94 -27t35 -74q0 -45 -35 -72.5t-94 -27.5q-57 0 -91 27.5t-34 72.5z" />
<glyph unicode="&#xf6ce;" horiz-adv-x="776" d="M653 1540h-176l-354 195v47h270z" />
<glyph unicode="&#xfb01;" horiz-adv-x="1316" d="M1096 1075v-1075h-189v915h-481v-915h-188v915h-189v160h189v68q0 166 107.5 241.5t316.5 75.5q135 0 245.5 -25.5t179.5 -64.5l-57 -147q-66 35 -155 56t-185 21q-86 0 -138 -12t-80 -39.5t-37 -69.5t-9 -104h670z" />
<glyph unicode="&#xfb02;" horiz-adv-x="1378" d="M897 1280q-55 10 -122.5 15t-121.5 5q-78 0 -124 -14t-69.5 -43t-30.5 -71t-7 -97h235v-160h-235v-915h-189v915h-184v160h184v68q0 168 97.5 242.5t322.5 74.5q39 0 96.5 -3t118 -8t117.5 -12t100 -14v-1132q0 -86 31 -123t84 -37q29 0 63.5 3t75.5 16l23 -140 q-43 -18 -107.5 -28.5t-115.5 -10.5q-111 0 -176.5 56.5t-65.5 187.5v1065z" />
<glyph unicode="&#xfb03;" horiz-adv-x="2140" d="M1724 1075h189v-1075h-189v1075zM1686 1331q0 47 37 85t96 38t98 -38t39 -85t-39 -83t-98 -36t-96 36t-37 83zM794 1075h182v29q0 100 18.5 168.5t58.5 110.5t104.5 60.5t156.5 18.5q78 0 136.5 -9t121.5 -32l-41 -153q-53 23 -99 29t-89 6q-57 0 -92 -10.5t-54.5 -36 t-25.5 -69.5t-6 -112h315v-160h-315v-915h-189v915h-182v160zM49 1075h182v29q0 100 18.5 168.5t58.5 110.5t104.5 60.5t156.5 18.5q78 0 136.5 -9t121.5 -32l-41 -153q-53 23 -99 29t-89 6q-57 0 -92 -10.5t-54.5 -36t-25.5 -69.5t-6 -112h315v-160h-315v-915h-189v915 h-182v160z" />
<glyph unicode="&#xfb04;" horiz-adv-x="2179" d="M1884 285q0 -84 32 -119t85 -35q33 0 63.5 4t73.5 17l25 -140q-20 -8 -49 -15t-60 -13.5t-61.5 -9.5t-55.5 -3q-111 0 -176 56.5t-65 187.5v1219h188v-1149zM794 1075h182v29q0 100 18.5 168.5t58.5 110.5t104.5 60.5t156.5 18.5q78 0 136.5 -9t121.5 -32l-41 -153 q-53 23 -99 29t-89 6q-57 0 -92 -10.5t-54.5 -36t-25.5 -69.5t-6 -112h315v-160h-315v-915h-189v915h-182v160zM49 1075h182v29q0 100 18.5 168.5t58.5 110.5t104.5 60.5t156.5 18.5q78 0 136.5 -9t121.5 -32l-41 -153q-53 23 -99 29t-89 6q-57 0 -92 -10.5t-54.5 -36 t-25.5 -69.5t-6 -112h315v-160h-315v-915h-189v915h-182v160z" />
</font>
</defs>
</svg>
