<?xml version="1.0" standalone="no"?>
<!DOCTYPE svg PUBLIC "-//W3C//DTD SVG 1.1//EN" "http://www.w3.org/Graphics/SVG/1.1/DTD/svg11.dtd" >
<svg xmlns="http://www.w3.org/2000/svg">
<metadata>
This is a custom SVG webfont generated by Font Squirrel.
Copyright   : Copyright  2009 ParaType Ltd All rights reserved
Designer    : AKorolkova OUmpeleva VYefimov
Foundry     : ParaType Ltd
Foundry URL : httpwwwparatypecom
</metadata>
<defs>
<font id="webfontLq3igG51" horiz-adv-x="1210" >
<font-face units-per-em="2048" ascent="1577" descent="-471" />
<missing-glyph horiz-adv-x="565" />
<glyph unicode=" "  horiz-adv-x="565" />
<glyph unicode="&#x09;" horiz-adv-x="565" />
<glyph unicode="&#xa0;" horiz-adv-x="565" />
<glyph unicode="!" horiz-adv-x="643" d="M215 1434h299v-670l-57 -330h-185l-57 330v670zM184 139q0 76 49.5 119t128.5 43q82 0 131.5 -43t49.5 -119q0 -72 -49.5 -117t-131.5 -45q-80 0 -129 45t-49 117z" />
<glyph unicode="&#x22;" horiz-adv-x="892" d="M203 1434h254l-78 -447h-176v447zM529 1434h254l-78 -447h-176v447z" />
<glyph unicode="#" d="M618 416h-198l-80 -314h-238l80 314h-164l50 207h168l53 208h-160l49 207h164l76 293h237l-75 -293h198l76 293h238l-76 -293h158l-54 -207h-157l-56 -208h154l-53 -207h-154l-78 -314h-237zM473 623h199l53 208h-199z" />
<glyph unicode="$" d="M506 -27q-127 4 -222.5 25.5t-148.5 48.5l86 248q41 -23 113 -43.5t172 -28.5v385q-70 27 -137.5 60.5t-120.5 84t-86 119t-33 166.5q0 186 101.5 286.5t275.5 127.5v186h231v-180q98 -6 172 -24.5t135 -47.5l-77 -241q-35 16 -95.5 33.5t-134.5 27.5v-356 q70 -27 139.5 -60.5t125 -83t89 -117t33.5 -161.5q0 -197 -103 -304.5t-284 -137.5v-191h-231v178zM641 221q100 10 144 54t44 116q0 61 -53 98t-135 70v-338zM602 1214q-53 -2 -88 -13t-55.5 -30.5t-27.5 -46t-7 -59.5q0 -59 50 -95t128 -69v313z" />
<glyph unicode="%" horiz-adv-x="1857" d="M109 1110q0 92 28.5 157.5t80.5 107.5t123 62.5t157 20.5q84 0 155.5 -18.5t123.5 -60.5t81 -108.5t29 -160.5q0 -96 -29 -161.5t-81 -107.5t-123.5 -60.5t-155.5 -18.5q-86 0 -157 18.5t-123 60.5t-80.5 107.5t-28.5 161.5zM369 1110q0 -80 28.5 -125t100.5 -45 q70 0 98.5 39t28.5 131t-29 131t-98 39q-70 0 -99.5 -39t-29.5 -131zM1012 348q0 92 28.5 157.5t81 107.5t123 62.5t156.5 20.5q84 0 155.5 -18.5t124 -60.5t81 -108.5t28.5 -160.5q0 -96 -28.5 -161.5t-81 -107.5t-124 -60.5t-155.5 -18.5q-86 0 -156.5 18.5t-123 60.5 t-81 107.5t-28.5 161.5zM1272 348q0 -80 28.5 -125t100.5 -45q70 0 98.5 39t28.5 131t-29 131t-98 39q-70 0 -99.5 -39t-29.5 -131zM1499 1470l162 -157l-1280 -1342l-156 158z" />
<glyph unicode="&#x26;" horiz-adv-x="1812" d="M205 399q0 76 27.5 146.5t76.5 133t118 115t153 95.5q-55 66 -91 134.5t-36 145.5q0 51 20.5 104.5t66.5 94.5t118.5 67.5t179.5 26.5q102 0 173.5 -22.5t115.5 -59.5t63.5 -85t19.5 -99q0 -82 -62.5 -173t-217.5 -173l79 -107q38 -49 77 -94l82 -88q42 -43 89 -86 q49 51 92.5 129t73.5 160l209 -119q-16 -35 -38.5 -78t-49 -86t-54.5 -82t-52 -67q68 -57 120 -90t107 -62l-156 -209q-57 25 -122.5 70t-126.5 100q-82 -68 -204 -119t-298 -51q-113 0 -213.5 30t-176 85t-119.5 134t-44 179zM1081 309q-113 109 -206 214.5t-164 199.5 q-109 -76 -164 -146.5t-55 -152.5q0 -100 83.5 -156.5t223.5 -56.5q88 0 164.5 29.5t117.5 68.5zM739 1155q0 -84 82 -178q86 49 125 92t39 82q0 51 -29.5 77.5t-97.5 26.5q-59 0 -89 -27.5t-30 -72.5z" />
<glyph unicode="'" horiz-adv-x="567" d="M203 1434h254l-78 -447h-176v447z" />
<glyph unicode="(" horiz-adv-x="729" d="M506 -451q-102 98 -173 216t-115 242t-63.5 250t-19.5 241q0 113 19.5 237.5t64.5 250.5t118 247t177 225l184 -125q-78 -94 -131 -197.5t-84.5 -210t-46 -215t-14.5 -212.5q0 -98 16.5 -207t50 -216.5t87 -210t126.5 -188.5z" />
<glyph unicode=")" horiz-adv-x="724" d="M219 1458q102 -98 173 -216t115 -241.5t63.5 -249.5t19.5 -241q0 -113 -19.5 -238t-63.5 -250.5t-117 -246.5t-177 -226l-184 127q82 102 135 206t84 208.5t43 210t12 209.5q0 98 -15.5 205.5t-49 214t-86 208t-125.5 189.5z" />
<glyph unicode="*" horiz-adv-x="835" d="M319 1505l62 -96l33 -125l32 117l62 104l137 -75l-65 -111l-105 -90l143 35h123v-158h-118l-134 37l109 -99l55 -92l-139 -78l-59 99l-43 133l-29 -121l-64 -106l-139 79l66 107l98 76l-123 -35h-127v160h129l129 -37l-110 92l-62 104z" />
<glyph unicode="+" horiz-adv-x="1167" d="M96 813h361v369h254v-369h360v-246h-360v-370h-254v370h-361v246z" />
<glyph unicode="," horiz-adv-x="505" d="M94 137q0 70 49.5 112t122.5 42q92 0 145.5 -59.5t53.5 -151.5q0 -96 -31 -164t-77 -112t-97 -69.5t-94 -37.5l-82 119q57 18 99 68t50 108q-49 -6 -94 29.5t-45 115.5z" />
<glyph unicode="-" horiz-adv-x="800" d="M121 717h559v-254h-559v254z" />
<glyph unicode="." horiz-adv-x="493" d="M94 139q0 76 49.5 119t128.5 43q82 0 131.5 -43t49.5 -119q0 -72 -49.5 -117t-131.5 -45q-80 0 -129 45t-49 117z" />
<glyph unicode="/" horiz-adv-x="907" d="M741 1458l217 -102l-794 -1643l-213 111z" />
<glyph unicode="0" d="M61 719q0 367 140.5 555t402.5 188q281 0 413 -185t132 -558q0 -365 -141.5 -556.5t-403.5 -191.5q-139 0 -241.5 52.5t-169 149.5t-99.5 235.5t-33 310.5zM356 719q0 -236 57.5 -372t190.5 -136q135 0 192.5 123t57.5 385q0 117 -13.5 210t-42 158.5t-76.5 100.5 t-118 35q-133 0 -190.5 -128t-57.5 -376z" />
<glyph unicode="1" d="M197 240h307v788l35 141l-107 -122l-201 -132l-114 168l501 375h162v-1218h301v-240h-884v240z" />
<glyph unicode="2" d="M1032 1079q0 -102 -41 -206.5t-103.5 -204t-139 -193.5t-150.5 -174l-117 -84v-10l158 33h424v-240h-936v143l120 120q67 67 134.5 142.5t132 156.5t113.5 161t79.5 156.5t30.5 142.5q0 78 -47 132t-162 54q-72 0 -145.5 -29.5t-126.5 -76.5l-119 205q88 66 196.5 110.5 t260.5 44.5q94 0 175 -24.5t139.5 -71.5t91 -120t32.5 -167z" />
<glyph unicode="3" d="M514 211q70 0 122 17.5t87 48t53.5 70.5t18.5 83q0 111 -75 164t-241 53h-162v152l265 323l129 95l-176 -23h-371v240h852v-154l-307 -377l-101 -55v-10l94 12q76 -6 144.5 -35t121 -78t83 -121.5t30.5 -169.5q0 -121 -44 -210t-119.5 -148t-178 -88t-221.5 -29 q-49 0 -100 4.5t-100.5 13.5t-93.5 20t-77 28l78 237q57 -27 129 -45t160 -18z" />
<glyph unicode="4" d="M1204 395h-243v-395h-269v395h-674v160l705 889h238v-826h243v-223zM692 913l17 166h-9l-73 -139l-228 -264l-114 -76l143 18h264v295z" />
<glyph unicode="5" d="M465 225q147 0 226 58.5t79 169.5q0 119 -92 174t-262 55l-178 -8v760h766v-267h-517v-254l93 9q109 -4 196.5 -38t150 -93.5t96.5 -143.5t34 -186q0 -121 -45 -213t-124 -153.5t-186.5 -92.5t-232.5 -31q-100 0 -191.5 16.5t-152.5 43.5l78 237q51 -18 111.5 -30.5 t150.5 -12.5z" />
<glyph unicode="6" d="M1128 444q0 -96 -36.5 -181t-103 -150.5t-160 -103.5t-207.5 -38q-115 0 -211.5 35t-168 103.5t-111.5 170t-40 236.5q0 199 63.5 363.5t171 286.5t251 198t305.5 98l59 -223q-111 -16 -204 -62.5t-165.5 -111t-122 -143t-69.5 -160.5q47 51 114.5 89t176.5 38 q102 0 187 -31t145.5 -88t93 -139.5t32.5 -186.5zM850 432q0 217 -244 217q-90 0 -151.5 -35.5t-85.5 -85.5q-4 -23 -4 -33v-26q0 -47 15 -93t46 -83t78 -59.5t110 -22.5q51 0 94.5 17.5t75 48t49 70.5t17.5 85z" />
<glyph unicode="7" d="M207 0l504 1083l98 101l-135 -21h-568v271h1006v-80l-623 -1354h-282z" />
<glyph unicode="8" d="M109 354q0 72 20.5 128.5t57 101.5t86 80.5t108.5 66.5q-111 63 -171 145t-60 205q0 78 31.5 147.5t92 122t147.5 82t197 29.5q100 0 182.5 -25.5t140.5 -71.5t90 -110.5t32 -140.5q0 -121 -56.5 -204t-172.5 -152q131 -72 200.5 -156t69.5 -217q0 -92 -37 -168 t-103.5 -130t-159.5 -85t-206 -31q-111 0 -202 28t-154.5 79t-98 121.5t-34.5 154.5zM829 383q0 45 -25.5 82t-65.5 67.5t-89 57t-98 49.5q-102 -53 -140 -116.5t-38 -121.5q0 -80 60.5 -135t170.5 -55q102 0 163.5 44t61.5 128zM424 1077q0 -49 21.5 -86t56.5 -64.5t79 -50 t91 -42.5q129 102 129 223q0 82 -55.5 124t-133.5 42q-98 0 -143 -43.5t-45 -102.5z" />
<glyph unicode="9" d="M70 983q0 104 34.5 191.5t100 152t160 100t215.5 35.5q254 0 397 -140t143 -402q0 -238 -65.5 -412t-176 -290t-255 -176t-304.5 -71l-61 219q123 14 218 53.5t164 98.5t113 134t62 159q-53 -53 -115.5 -73.5t-164.5 -20.5q-86 0 -169 26.5t-148.5 82t-106.5 138 t-41 195.5zM348 997q0 -113 73 -170t179 -57q92 0 149.5 27.5t90.5 64.5q2 23 4 41.5t2 34.5q0 53 -15.5 106.5t-48 95.5t-84 67.5t-120.5 25.5q-109 0 -169.5 -62.5t-60.5 -173.5z" />
<glyph unicode=":" horiz-adv-x="600" d="M209 872q0 76 49 119t129 43q82 0 131 -43t49 -119q0 -72 -49 -116.5t-131 -44.5q-80 0 -129 44.5t-49 116.5zM209 139q0 76 49 119t129 43q82 0 131 -43t49 -119q0 -72 -49 -117t-131 -45q-80 0 -129 45t-49 117z" />
<glyph unicode=";" horiz-adv-x="575" d="M178 137q0 70 49 112t123 42q92 0 145.5 -59.5t53.5 -151.5q0 -96 -31 -164t-77 -112t-97 -69.5t-94 -37.5l-82 119q57 18 99 68t50 108q-49 -6 -94 29.5t-45 115.5zM176 872q0 76 49 119t129 43q82 0 131.5 -43t49.5 -119q0 -72 -49.5 -116.5t-131.5 -44.5 q-80 0 -129 44.5t-49 116.5z" />
<glyph unicode="&#x3c;" horiz-adv-x="1169" d="M86 580v151l868 483l119 -200l-493 -283l-203 -72l201 -63l505 -279l-116 -200z" />
<glyph unicode="=" horiz-adv-x="1169" d="M96 1012h977v-246h-977v246zM96 614h977v-245h-977v245z" />
<glyph unicode="&#x3e;" horiz-adv-x="1169" d="M1083 752v-152l-872 -485l-115 204l494 281l203 74l-201 61l-506 281l115 201z" />
<glyph unicode="?" horiz-adv-x="1005" d="M299 434q-12 115 10.5 193t62.5 131t89 89l93 68q44 33 73.5 69t29.5 87q0 72 -42 112t-152 40q-35 0 -77 -8.5t-83 -22.5t-79 -32.5t-64 -39.5l-111 213q84 55 193.5 92t267.5 37q207 0 326.5 -94t119.5 -254q0 -111 -29.5 -179.5t-75.5 -114.5t-98.5 -79.5t-98.5 -71.5 t-75.5 -92.5t-29.5 -142.5h-250zM256 139q0 76 49 119t129 43q82 0 131 -43t49 -119q0 -72 -49 -117t-131 -45q-80 0 -129 45t-49 117z" />
<glyph unicode="@" horiz-adv-x="2349" d="M1507 989h156l-109 -549q-4 -23 -7 -42t-3 -36q0 -49 21.5 -70.5t62.5 -21.5q57 0 112.5 23.5t99.5 72t70.5 123t26.5 179.5q0 158 -56 269.5t-153.5 183t-227.5 104t-277 32.5q-172 0 -320.5 -59t-258 -161.5t-171 -242t-61.5 -300.5q0 -160 51 -289t150.5 -221.5 t248 -142.5t342.5 -50q61 0 142 15.5t149 43.5l68 -215q-92 -41 -185.5 -58t-216.5 -17q-219 0 -402.5 61.5t-315.5 180t-205.5 289.5t-73.5 392q0 227 85 412.5t231.5 318t340 204t408.5 71.5q205 0 379 -57.5t302 -165t200.5 -259t72.5 -339.5q0 -129 -50 -243t-136 -198 t-203 -133t-250 -49q-57 0 -104 11.5t-80 39t-48.5 73.5t-6.5 114h-9q-35 -47 -73.5 -90t-84.5 -76t-102.5 -52.5t-124.5 -19.5q-53 0 -101 21.5t-83 61.5t-55.5 95.5t-20.5 122.5q0 121 44 238.5t120 210t176.5 149.5t214.5 57q78 0 131.5 -21.5t100.5 -57.5zM1366 729 q-29 25 -60.5 36t-78.5 11q-68 0 -124 -33.5t-97 -86t-63.5 -115t-22.5 -119.5q0 -66 29.5 -109t105.5 -43q33 0 67.5 17.5t68.5 47.5t64.5 69.5t55.5 82.5z" />
<glyph unicode="A" horiz-adv-x="1347" d="M903 305h-483l-117 -305h-303l561 1444h223l564 -1444h-322zM504 545h327l-110 299l-49 227h-10l-50 -229z" />
<glyph unicode="B" horiz-adv-x="1312" d="M1182 1096q0 -53 -15.5 -105.5t-48.5 -97.5t-86 -78t-129 -47v-12q68 -6 127.5 -31t103.5 -69t69.5 -106.5t25.5 -146.5q0 -113 -52.5 -192.5t-136.5 -130.5t-192.5 -75.5t-220.5 -24.5h-98q-60 0 -128.5 3t-139.5 9t-128 18v1413q43 6 97.5 12.5t117 10.5t128 6t130.5 2 q106 0 209 -15.5t184.5 -55.5t132 -109t50.5 -178zM623 225q57 0 109 10.5t92 34t63.5 59.5t23.5 89q0 66 -28.5 104.5t-74.5 58t-102.5 24.5t-113.5 5h-168v-372q12 -4 35.5 -6.5t52.5 -3.5l58 -2q30 -1 53 -1zM526 836q31 0 73 1t71 5q86 27 145 73t59 125q0 53 -22.5 86 t-60 51.5t-85 24.5t-96.5 6q-59 0 -108 -2t-78 -6v-364h102z" />
<glyph unicode="C" horiz-adv-x="1243" d="M1186 61q-68 -47 -178.5 -68.5t-227.5 -21.5q-137 0 -263 41t-223 131t-154.5 231.5t-57.5 342.5q0 209 65.5 351t168 229t227.5 126t245 39q133 0 224.5 -16t150.5 -39l-59 -254q-51 23 -120 33t-173 10q-92 0 -167 -29.5t-128 -89t-83 -149.5t-30 -211 q0 -106 27 -194.5t80 -152t135 -98t191 -34.5q100 0 168.5 18t121.5 47z" />
<glyph unicode="D" horiz-adv-x="1437" d="M133 1434q45 6 103.5 10t121 6t122 3t106.5 1q205 0 351 -54t239.5 -150.5t136.5 -229.5t43 -291q0 -143 -42 -278.5t-136.5 -241t-246 -169t-372.5 -63.5q-35 0 -95.5 2.5t-125 5.5t-120.5 6t-85 7v1436zM608 1188q-47 0 -96 -1t-76 -5v-930q10 -2 32 -3l45 -2l45 -2 q22 -1 32 -1q131 0 217 41t136 108.5t70.5 153.5t20.5 178q0 76 -18.5 158t-66.5 149.5t-130 111.5t-211 44z" />
<glyph unicode="E" horiz-adv-x="1159" d="M133 1434h924v-267h-621v-311h563v-266h-563v-324h631v-266h-934v1434z" />
<glyph unicode="F" horiz-adv-x="1128" d="M133 1434h924v-267h-621v-333h572v-267h-572v-567h-303v1434z" />
<glyph unicode="G" horiz-adv-x="1353" d="M678 754h586v-643q-47 -37 -103.5 -62.5t-119 -43t-128 -26t-129.5 -8.5q-147 0 -275 43t-223.5 134.5t-149.5 232.5t-54 336q0 203 65.5 345t171 231t235.5 129t259 40q133 0 234.5 -19.5t158.5 -37.5l-63 -252q-55 18 -125 30.5t-174 12.5q-96 0 -176 -25.5t-139.5 -83 t-92.5 -149.5t-33 -223q0 -127 33 -217t89.5 -148.5t130 -85t155.5 -26.5q55 0 111.5 12t95.5 39v248l-340 32v185z" />
<glyph unicode="H" horiz-adv-x="1445" d="M1010 592h-574v-592h-303v1434h303v-576h574v576h303v-1434h-303v592z" />
<glyph unicode="I" horiz-adv-x="794" d="M246 1270h-164v164h631v-164h-164v-1106h164v-164h-631v164h164v1106z" />
<glyph unicode="J" horiz-adv-x="741" d="M293 1434h303v-1045q0 -76 -20.5 -149.5t-64.5 -133t-115.5 -96.5t-174.5 -37q-66 0 -140.5 13.5t-131.5 38.5l65 241q59 -27 131 -26q47 0 76 17t45.5 49t21.5 75t5 92v961z" />
<glyph unicode="K" horiz-adv-x="1374" d="M516 606h-80v-606h-303v1434h303v-631l72 31l430 600h346l-455 -600l-118 -78l123 -82l520 -674h-375z" />
<glyph unicode="L" horiz-adv-x="1140" d="M1120 0h-987v1434h303v-1168h684v-266z" />
<glyph unicode="M" horiz-adv-x="1777" d="M1341 719l33 297h-12l-98 -225l-332 -535h-94l-353 537l-96 221h-12l43 -293v-721h-287v1434h275l413 -662l78 -158h10l68 162l395 658h273v-1434h-304v719z" />
<glyph unicode="N" horiz-adv-x="1460" d="M520 748l-123 215h-10l33 -218v-745h-287v1444h219l592 -764l117 -209h12l-33 211v752h287v-1444h-219z" />
<glyph unicode="O" horiz-adv-x="1488" d="M82 717q0 176 45 315t130 234.5t208 145.5t278 50q166 0 290 -54t207 -152.5t125 -235.5t42 -303q0 -176 -46 -315.5t-132 -234.5t-209 -145.5t-277 -50.5q-166 0 -289.5 54.5t-206.5 152.5t-124 235.5t-41 303.5zM403 717q0 -106 20.5 -194.5t61.5 -152t105.5 -98 t152.5 -34.5q162 0 252 110.5t90 368.5q0 102 -18 190t-60 152.5t-106.5 100.5t-157.5 36q-160 0 -250 -114.5t-90 -364.5z" />
<glyph unicode="P" horiz-adv-x="1269" d="M133 1419q92 16 205 25.5t225 9.5q115 0 231.5 -17.5t210 -69.5t153 -145.5t59.5 -246.5q0 -135 -51.5 -230.5t-136.5 -155t-193.5 -87t-223.5 -27.5h-34q-25 0 -52.5 1t-52 3t-37.5 4v-483h-303v1419zM584 1188q-43 0 -83 -2t-65 -8v-426q8 -2 26.5 -4.5t39 -3.5t38 -2 t27.5 -1q59 0 118.5 8.5t106 35t75 72.5t28.5 124q0 66 -26.5 105.5t-70.5 62t-100.5 31t-113.5 8.5z" />
<glyph unicode="Q" horiz-adv-x="1488" d="M1561 -434q-55 -14 -108.5 -19.5t-106.5 -5.5q-113 0 -220.5 20.5t-207 46t-192.5 46t-175 20.5q-55 0 -105 -12v266q63 12 127 13q92 0 185.5 -20.5t189.5 -44t197.5 -44t212.5 -20.5q102 0 203 20v-266zM82 717q0 176 45 315t130 234.5t208 145.5t278 50q166 0 290 -54 t207 -152.5t125 -235.5t42 -303q0 -176 -46 -315.5t-132 -234.5t-209 -145.5t-277 -50.5q-166 0 -289.5 54.5t-206.5 152.5t-124 235.5t-41 303.5zM403 717q0 -106 20.5 -194.5t61.5 -152t105.5 -98t152.5 -34.5q162 0 252 110.5t90 368.5q0 102 -18 190t-60 152.5 t-106.5 100.5t-157.5 36q-160 0 -250 -114.5t-90 -364.5z" />
<glyph unicode="R" horiz-adv-x="1335" d="M133 1419q49 8 107.5 15.5t118 11.5t115.5 6t104 2q109 0 214 -18.5t188 -63.5t134 -124t51 -197q0 -176 -87 -290t-240 -155l108 -63l359 -543h-353l-356 555l-160 25v-580h-303v1419zM598 1188q-47 0 -91 -1t-71 -7v-396h129q129 0 204 49.5t75 170.5q0 90 -63.5 137 t-182.5 47z" />
<glyph unicode="S" horiz-adv-x="1177" d="M805 393q0 63 -53.5 100t-132 68t-171 61.5t-171 82t-132 129t-53.5 202.5q0 106 38 187.5t106.5 133.5t166 78.5t213.5 26.5q135 0 257 -23.5t200 -66.5l-96 -254q-25 14 -62.5 29.5t-87 27t-104.5 18.5t-113 7q-102 0 -158.5 -36t-56.5 -99t53.5 -101t132 -70 t171 -63.5t171 -82t132 -126t53.5 -194.5t-41 -205t-115.5 -142t-179 -83t-229.5 -27q-84 0 -159 9.5t-138.5 22.5t-111.5 28.5t-77 29.5l101 256q23 -12 62.5 -26.5t88.5 -27.5t105.5 -21.5t113.5 -8.5q135 0 206 39t71 121z" />
<glyph unicode="T" horiz-adv-x="1261" d="M1237 1167h-455v-1167h-303v1167h-454v267h1212v-267z" />
<glyph unicode="U" horiz-adv-x="1390" d="M979 1434h287v-920q0 -139 -40 -241.5t-113 -168t-174 -97.5t-222 -32q-289 0 -440.5 126t-151.5 378v955h303v-899q0 -164 71.5 -228.5t213.5 -64.5q135 0 200.5 68.5t65.5 224.5v899z" />
<glyph unicode="V" horiz-adv-x="1339" d="M645 606l41 -244h10l45 246l299 826h320l-580 -1444h-217l-583 1444h352z" />
<glyph unicode="W" horiz-adv-x="1921" d="M539 645l28 -254h8l33 258l273 785h196l269 -789l32 -254h11l30 258l191 785h311l-430 -1444h-205l-278 780l-37 221h-15l-36 -223l-277 -778h-215l-428 1444h332z" />
<glyph unicode="X" horiz-adv-x="1402" d="M500 729l-434 705h366l240 -408l55 -141l53 141l250 408h330l-451 -691l473 -743h-362l-275 436l-61 148l-59 -148l-275 -436h-330z" />
<glyph unicode="Y" horiz-adv-x="1318" d="M508 528l-512 906h360l287 -527l33 -153h10l35 157l276 523h326l-512 -904v-530h-303v528z" />
<glyph unicode="Z" horiz-adv-x="1196" d="M57 266l658 817l119 84h-777v267h1082v-267l-662 -823l-115 -78h777v-266h-1082v266z" />
<glyph unicode="[" horiz-adv-x="716" d="M133 1434h520v-240h-245v-1425h245v-240h-520v1905z" />
<glyph unicode="\" horiz-adv-x="942" d="M979 -180l-225 -107l-803 1639l221 104z" />
<glyph unicode="]" horiz-adv-x="716" d="M584 -471h-521v240h246v1425h-246v240h521v-1905z" />
<glyph unicode="^" horiz-adv-x="1095" d="M483 1444h154l412 -602h-291l-160 243l-47 144l-55 -146l-172 -241h-277z" />
<glyph unicode="_" horiz-adv-x="989" d="M0 -231h989v-232h-989v232z" />
<glyph unicode="`" horiz-adv-x="716" d="M578 1169h-152l-287 263v61h301z" />
<glyph unicode="a" horiz-adv-x="1185" d="M137 1001q92 41 226.5 68t277.5 27q113 0 189.5 -27t121.5 -77t64.5 -120.5t19.5 -156.5q0 -104 -8 -206.5t-8 -217.5q0 -78 10 -151.5t33 -141.5h-234l-47 160h-24q-53 -72 -135 -123t-211 -51q-78 0 -142.5 22.5t-110.5 64.5t-72 99t-26 125q0 182 122 275.5t370 93.5 q57 0 114.5 -9.5l80.5 -13.5q6 43 6 74q0 78 -39 114.5t-146 36.5q-98 0 -191 -23.5t-165 -58.5zM512 213q96 0 153.5 45t84.5 94v123q-10 4 -32 8l-47.5 8.5t-51 6.5t-46.5 2q-111 0 -164 -40t-53 -100q0 -74 42 -110.5t114 -36.5z" />
<glyph unicode="b" horiz-adv-x="1267" d="M147 1434h287v-451h25q49 55 126 87t169 32q209 0 318.5 -136.5t109.5 -398.5q0 -141 -40 -251.5t-114 -186.5t-180.5 -116t-239.5 -40q-154 0 -274.5 21.5t-186.5 48.5v1391zM434 244q41 -20 87 -25.5t100 -5.5q266 0 266 348q0 147 -55.5 224t-163.5 77 q-92 0 -148.5 -43t-85.5 -127v-448z" />
<glyph unicode="c" horiz-adv-x="1024" d="M958 66q-70 -47 -167 -72t-201 -25q-139 0 -234.5 41t-156 117t-87 179.5t-26.5 230.5q0 268 132 418.5t384 150.5q123 0 202 -19.5t140 -50.5l-70 -229q-53 23 -105 34t-122 11q-129 0 -197.5 -75t-68.5 -240q0 -66 16.5 -122.5t51 -99.5t88 -67.5t125.5 -24.5 q86 0 136 15.5t95 42.5z" />
<glyph unicode="d" horiz-adv-x="1286" d="M1126 377q0 -86 2 -178.5t19 -200.5h-199l-41 149h-26q-47 -82 -134.5 -130t-207.5 -48q-215 0 -334 134.5t-119 414.5q0 135 34 243.5t100.5 184.5t164.5 117t227 41q72 0 124 -11.5t104 -27.5v369h286v-1057zM612 209q96 0 149.5 44t78.5 126v430q-37 29 -79 42 t-110 13q-137 0 -203.5 -79.5t-66.5 -274.5q0 -135 56 -218t175 -83z" />
<glyph unicode="e" horiz-adv-x="1216" d="M1067 98q-70 -53 -189.5 -91t-256.5 -38q-276 0 -405.5 151.5t-129.5 416.5q0 281 145.5 425t409.5 144q86 0 170 -21.5t149.5 -71.5t105.5 -135t40 -210q0 -43 -5 -94.5t-18 -106.5h-716q10 -139 80.5 -205.5t230.5 -66.5q96 0 173 27.5t118 56.5zM637 881 q-127 0 -188.5 -69t-71.5 -175h463q1 16 1 31q0 91 -42 147q-49 66 -162 66z" />
<glyph unicode="f" horiz-adv-x="757" d="M33 1075h162v68q0 94 28.5 154.5t77.5 96.5t113.5 50t134.5 14q98 0 171 -9t136 -30l-53 -223q-51 16 -92 22.5t-88 6.5q-88 0 -115 -33t-27 -117h262v-239h-262v-836h-286v836h-162v239z" />
<glyph unicode="g" horiz-adv-x="1267" d="M1120 41q0 -238 -135 -350.5t-383 -112.5q-160 0 -257 21.5t-150 48.5q27 82 40 130t19 72.5t8 30.5l2 6q49 -25 119 -50t170 -25q84 0 139.5 16t88 48t46 77t13.5 100v80h-25q-41 -59 -112.5 -83.5t-178.5 -24.5q-219 0 -328.5 120.5t-109.5 389.5q0 283 144.5 426 t428.5 143q150 0 267.5 -19.5t193.5 -44.5v-999zM592 248q94 0 154.5 34.5t87.5 86.5v462q-76 33 -193 33q-125 0 -192.5 -73.5t-67.5 -243.5q0 -156 57.5 -227.5t153.5 -71.5z" />
<glyph unicode="h" horiz-adv-x="1306" d="M872 0v592q0 139 -42 199.5t-154 60.5q-82 0 -150.5 -52t-91.5 -138v-662h-287v1434h287v-490h25q55 72 138 117t210 45q88 0 153.5 -21.5t109.5 -74t66.5 -139.5t22.5 -216v-655h-287z" />
<glyph unicode="i" horiz-adv-x="649" d="M182 1075h287v-1075h-287v1075zM139 1304q0 66 47 110t133 44q88 0 139.5 -45t51.5 -109q0 -59 -51 -102t-140 -43q-86 0 -133 43t-47 102z" />
<glyph unicode="j" horiz-adv-x="649" d="M186 1075h287v-1124q0 -195 -80 -299.5t-258 -104.5q-70 0 -147 15v239q63 -6 102 8.5t60.5 45t28.5 75.5t7 105v1040zM141 1304q0 66 47 110t133 44q88 0 139.5 -45t51.5 -109q0 -59 -51 -102t-140 -43q-86 0 -133 43t-47 102z" />
<glyph unicode="k" horiz-adv-x="1155" d="M532 446h-98v-446h-287v1434h287v-824l90 39l269 426h315l-274 -391h2l-131 -94l137 -90h-2l315 -500h-332z" />
<glyph unicode="l" horiz-adv-x="690" d="M440 377q0 -156 101 -156q29 0 54.5 5t59.5 18l35 -224q-41 -18 -115.5 -35.5t-154.5 -17.5q-129 0 -197.5 57.5t-68.5 188.5v1221h286v-1057z" />
<glyph unicode="m" horiz-adv-x="1925" d="M819 0v561q0 156 -32.5 223.5t-135.5 67.5q-86 0 -137 -42t-80 -110v-700h-287v1075h222l32 -149h27q27 35 61.5 67.5t76.5 57t94.5 40t117.5 15.5q109 0 181.5 -48t115.5 -161q59 98 144.5 153.5t197.5 55.5q98 0 167 -22.5t112 -78t62.5 -149.5t19.5 -235v-621h-287 v575q0 68 -6 119t-24.5 87t-52.5 53.5t-89 17.5q-86 0 -138.5 -44t-74.5 -122v-686h-287z" />
<glyph unicode="n" horiz-adv-x="1306" d="M872 0v590q0 139 -43 200.5t-151 61.5q-92 0 -156.5 -50t-89.5 -128q0 -168 1 -337t1 -337h-287v1075h226l30 -153h31q53 76 141.5 130t229.5 54q86 0 152.5 -21.5t110.5 -74t67.5 -140.5t23.5 -221v-649h-287z" />
<glyph unicode="o" horiz-adv-x="1261" d="M86 537q0 266 141.5 417.5t403.5 151.5q137 0 239.5 -43t170 -120t101.5 -180.5t34 -225.5q0 -131 -37 -236.5t-106.5 -179.5t-171 -113t-230.5 -39q-139 0 -241.5 43t-170 120t-100.5 180.5t-33 224.5zM381 537q0 -68 14.5 -127.5t44 -103.5t76.5 -70.5t115 -26.5 q250 0 250 328q0 72 -13.5 132t-43 104t-78 68.5t-115.5 24.5q-117 0 -183.5 -77.5t-66.5 -251.5z" />
<glyph unicode="p" horiz-adv-x="1275" d="M147 1075h205l35 -133h25q63 82 147 123t197 41q217 0 325.5 -130t108.5 -413q0 -135 -35 -244.5t-102.5 -188.5t-167 -121t-228.5 -42q-70 0 -121 13.5t-102 35.5v-424h-287v1483zM668 866q-98 0 -151.5 -44t-82.5 -136v-418q35 -29 78 -45t109 -16q139 0 206.5 87 t67.5 277q0 137 -52 216t-175 79z" />
<glyph unicode="q" horiz-adv-x="1267" d="M1120 -408h-286v510h-25q-41 -63 -107.5 -98t-175.5 -35q-215 0 -327.5 136.5t-112.5 408.5q0 289 155.5 439.5t448.5 150.5q61 0 124 -6t119 -15.5t104 -20.5t83 -24v-1446zM610 209q96 0 147.5 41t76.5 121v463q-37 16 -84.5 23t-106.5 7q-135 0 -198.5 -92t-63.5 -246 t59 -235.5t170 -81.5z" />
<glyph unicode="r" horiz-adv-x="831" d="M782 813q-61 20 -123 21q-90 0 -148 -43t-77 -109v-682h-287v1075h226l30 -149h27q41 84 109.5 129t156.5 45q55 0 127 -23z" />
<glyph unicode="s" horiz-adv-x="989" d="M145 279q29 -14 67 -28.5t82 -27t90 -20.5t93 -8q72 0 112 22.5t40 83.5q0 49 -53.5 72.5t-131.5 46.5q-57 16 -119.5 38.5t-114.5 60.5t-86 99.5t-34 155.5q0 162 100.5 247t288.5 85q123 0 230.5 -21.5t173.5 -50.5l-60 -217q-53 20 -136 42t-169 22 q-72 0 -106.5 -21.5t-34.5 -75.5q0 -47 54 -70.5t132 -45.5q57 -16 119.5 -38t114 -58.5t85 -95t33.5 -146.5q0 -172 -111.5 -266.5t-334.5 -94.5q-121 0 -225.5 21.5t-169.5 62.5z" />
<glyph unicode="t" horiz-adv-x="827" d="M16 1075h164v148l287 75v-223h289v-239h-289v-373q0 -129 25.5 -185.5t101.5 -56.5q47 0 80 7.5t69 23.5l60 -215q-66 -29 -151 -49.5t-165 -20.5q-160 0 -233.5 79t-73.5 253v537h-164v239z" />
<glyph unicode="u" horiz-adv-x="1314" d="M434 1075v-596q0 -133 37 -194.5t141 -61.5q90 0 151.5 47t90.5 119v686h287v-747q0 -86 9 -172t26 -156h-211l-56 168h-22q-53 -86 -151.5 -142.5t-225.5 -56.5q-88 0 -155.5 22.5t-113.5 75t-70 138.5t-24 213v657h287z" />
<glyph unicode="v" horiz-adv-x="1118" d="M526 518l43 -166h33l31 170l201 553h309l-492 -1085h-164l-512 1085h334z" />
<glyph unicode="w" horiz-adv-x="1689" d="M977 1075l108 -272l109 -273l41 -180h31l30 182l76 272l76 271h262l-367 -1085h-206l-119 296l-119 296l-29 139h-36q-6 -35 -14.5 -71t-14.5 -70l-223 -590h-217l-377 1085h311l172 -530l29 -199h30l41 201l195 528h211z" />
<glyph unicode="x" horiz-adv-x="1202" d="M393 551l-352 524h348l146 -209l-3 2l84 -190l82 190l-2 -2l156 209h315l-354 -516l377 -559h-340l-174 242l2 -2l-86 188l-90 -188l2 2l-176 -242h-316z" />
<glyph unicode="y" horiz-adv-x="1107" d="M541 479l45 -172h20l39 172l182 596h293l-356 -973q-45 -121 -85 -217t-87 -163.5t-105.5 -103.5t-138.5 -36q-53 0 -101 9.5t-83 27.5l59 221q31 -10 64 -10q29 0 55.5 6t49 23.5t42 49.5t33.5 85l-492 1081h347z" />
<glyph unicode="z" horiz-adv-x="1077" d="M86 244l453 487h-2l133 105h-584v239h905v-244l-448 -493h2l-135 -98h581v-240h-905v244z" />
<glyph unicode="{" horiz-adv-x="825" d="M276 190q0 104 -46 143.5t-132 39.5v217q86 0 132 42t46 132v416q0 111 56.5 183.5t179.5 72.5h266v-240h-112q-59 0 -87 -29.5t-28 -95.5v-383q0 -90 -48 -136t-108 -56v-21q59 -8 107.5 -61.5t48.5 -139.5v-380q0 -63 27.5 -94t89.5 -31h110v-240h-266 q-115 0 -175.5 66.5t-60.5 187.5v407z" />
<glyph unicode="|" horiz-adv-x="503" d="M133 1434h238v-1700h-238v1700z" />
<glyph unicode="}" horiz-adv-x="825" d="M549 774q0 -104 46 -143t132 -39v-217q-86 0 -132 -42t-46 -132v-414q0 -111 -60.5 -184.5t-183.5 -73.5h-258v240h111q59 0 87.5 29.5t28.5 95.5v382q0 90 47.5 136.5t108.5 56.5v20q-59 8 -107.5 61.5t-48.5 139.5v381q0 63 -27.5 94t-90.5 31h-109v240h264 q117 0 177.5 -68t60.5 -188v-406z" />
<glyph unicode="~" horiz-adv-x="1169" d="M61 778q104 78 187.5 109t154.5 31q63 0 119 -17.5t107 -38t100 -38t102 -17.5q41 0 83 13.5t90 47.5l104 -221q-80 -57 -145.5 -78.5t-122.5 -21.5q-61 0 -114.5 18.5t-105 42t-102.5 42t-108 18.5q-53 0 -116 -22.5t-136 -82.5z" />
<glyph unicode="&#xa1;" horiz-adv-x="641" d="M420 -410h-299v670l57 330h182l60 -330v-670zM96 885q0 76 49.5 119t128.5 43q82 0 131.5 -43t49.5 -119q0 -72 -49.5 -117t-131.5 -45q-80 0 -129 45t-49 117z" />
<glyph unicode="&#xa2;" d="M831 231q51 8 90.5 22.5t69.5 31.5l70 -219q-41 -27 -97.5 -46.5t-121.5 -31.5v-193h-267v182q-115 14 -193.5 58.5t-127.5 113t-71.5 160.5t-22.5 203q0 229 105.5 365.5t309.5 166.5v185h267v-185q63 -8 112.5 -22t89.5 -33l-69 -235q-33 12 -69 22t-75 15v-560z M625 786q-90 -20 -134.5 -85.5t-44.5 -188.5q0 -92 41 -167t138 -103v544z" />
<glyph unicode="&#xa3;" d="M90 811h152q-29 47 -49.5 104.5t-20.5 143.5q0 100 37 176t102.5 127t156.5 75.5t200 24.5q135 0 246.5 -25.5t193.5 -60.5l-94 -260q-41 23 -121 49.5t-191 26.5q-106 0 -166.5 -43t-60.5 -131q0 -66 28.5 -113t63.5 -94h307v-233h-206q0 -10 1 -22.5t1 -25.5 q0 -63 -22.5 -129.5t-72.5 -111.5l-83 -58v-10l137 33h512v-254h-1051v254h4q141 4 211 71.5t70 166.5q0 41 -10 86h-275v233z" />
<glyph unicode="&#xa4;" d="M190 1280l160 -158l37 -75q41 31 97.5 45t117.5 14q59 0 117.5 -15.5t99.5 -43.5l39 75l160 158l164 -172l-158 -160l-76 -30q29 -43 41 -97.5t12 -113.5q0 -61 -13 -115.5t-40 -91.5l76 -33l158 -160l-164 -168l-160 158l-35 74q-39 -29 -100 -44.5t-121 -15.5 q-61 0 -117.5 15.5t-97.5 44.5l-37 -74l-160 -158l-163 168l157 160l74 37q-23 41 -37 91t-14 112q0 59 15.5 110t39.5 98l-78 35l-157 160zM440 709q0 -74 46 -123t118 -49q74 0 119 49t45 123q0 72 -45 122t-119 50q-72 0 -118 -50t-46 -122z" />
<glyph unicode="&#xa5;" d="M164 692h198l-419 742h360l287 -527l33 -153h10l35 157l276 523h326l-420 -742h199v-192h-291v-119h291v-193h-291v-188h-303v188h-291v193h291v119h-291v192z" />
<glyph unicode="&#xa6;" horiz-adv-x="503" d="M133 436h238v-702h-238v702zM371 731h-238v703h238v-703z" />
<glyph unicode="&#xa7;" horiz-adv-x="1179" d="M109 723q0 63 33.5 123.5t88.5 107.5l93 27q-59 33 -95 84t-36 133q0 117 96 190.5t291 73.5q133 0 245.5 -20.5t173.5 -48.5l-71 -232q-49 25 -134 43.5t-167 18.5t-115 -20.5t-33 -53.5q0 -37 44 -55.5t110 -33.5l141 -34q76 -18 141.5 -55t109.5 -98.5t44 -161.5 q0 -63 -31.5 -122t-89.5 -106l-100 -28q59 -33 99 -84.5t40 -134.5q0 -129 -106.5 -197t-286.5 -68q-154 0 -256 31t-166 66l78 217q51 -25 123.5 -49.5t173.5 -24.5q82 0 117.5 17.5t35.5 58.5q0 39 -44 58.5t-109 34.5l-143 34q-77 18 -142 54t-109 95.5t-44 159.5z M782 707q0 37 -18.5 61.5t-54 42.5t-87.5 34l-118 34q-43 -25 -76 -65t-33 -87q0 -35 18.5 -59.5t53.5 -43t85 -34t116 -31.5q49 25 81.5 65t32.5 83z" />
<glyph unicode="&#xa8;" horiz-adv-x="1095" d="M137 1346q0 72 44 114.5t114 42.5t112 -43t42 -114q0 -61 -42 -104.5t-112 -43.5t-114 43.5t-44 104.5zM655 1346q0 72 42 114.5t112 42.5q72 0 114 -43t42 -114q0 -61 -42 -104.5t-114 -43.5q-70 0 -112 43.5t-42 104.5z" />
<glyph unicode="&#xa9;" horiz-adv-x="1822" d="M119 586q0 180 61.5 326.5t168 250t251.5 158.5t311 55t310.5 -55t251 -158.5t168 -250t61.5 -326.5q0 -182 -61.5 -328.5t-168 -249t-251 -159t-310.5 -56.5q-182 0 -329.5 56.5t-250 159t-157.5 249t-55 328.5zM338 586q0 -135 43 -244t120 -183.5t181 -115.5t229 -41 t229.5 41t181.5 115.5t120 183.5t43 244t-43 242.5t-120 182t-181.5 115.5t-229.5 41t-229 -41t-181 -115.5t-120 -182t-43 -242.5zM1186 240q-47 -33 -122 -51.5t-159 -18.5q-176 0 -269 111.5t-93 304.5q0 199 99 307t263 108q82 0 144.5 -19t121.5 -50l-73 -197 q-37 18 -69 24.5t-60 6.5q-59 0 -95 -39t-36 -141q0 -182 147 -183q39 0 69.5 7.5t65.5 25.5z" />
<glyph unicode="&#xaa;" horiz-adv-x="980" d="M160 1376q59 31 163.5 52.5t237.5 21.5q84 0 140.5 -14.5t90 -43t48 -71.5t14.5 -102q0 -70 -3 -137.5t-3 -131.5q0 -47 3 -90t13 -82h-231l-27 96h-8q-29 -35 -82 -69.5t-149 -34.5q-113 0 -181.5 57.5t-68.5 147.5q0 63 32.5 106t90 70t134.5 39t165 12q16 0 29.5 -1 t29.5 -1q4 47 -15.5 69.5t-97.5 22.5q-92 0 -163.5 -17.5t-114.5 -33.5zM455 936q37 0 60.5 7t39.5 17.5t25.5 22.5t17.5 25v65q-18 2 -36.5 3t-35.5 1q-68 0 -109.5 -17.5t-41.5 -58.5q0 -31 23.5 -48t56.5 -17z" />
<glyph unicode="&#xab;" horiz-adv-x="1087" d="M498 535l344 440l151 -129l-174 -234l-102 -80l102 -71l187 -232l-152 -129zM66 530l356 471l170 -143l-186 -242l-107 -84l107 -73l200 -238l-172 -143z" />
<glyph unicode="&#xac;" horiz-adv-x="1169" d="M100 852h985v-477h-256v231h-729v246z" />
<glyph unicode="&#xad;" horiz-adv-x="800" d="M121 717h559v-254h-559v254z" />
<glyph unicode="&#xae;" horiz-adv-x="1505" d="M131 891q0 147 50 263t135 196t198 120.5t240 40.5q129 0 241.5 -40.5t197.5 -120.5t133 -196t48 -263t-50 -263t-134 -196t-197.5 -121t-238.5 -41q-129 0 -243 41t-199 121t-133 196t-48 263zM342 891q0 -104 34 -183t90 -131.5t131 -78t157 -25.5q86 0 160.5 25.5 t130 77t87 130t31.5 185.5q0 104 -32.5 183t-89 131t-131 78t-156.5 26q-92 0 -168 -29t-130.5 -83t-84 -132t-29.5 -174zM528 1176q35 10 98.5 16t118.5 6q92 0 159 -39t67 -133q0 -68 -45 -105.5t-111 -41.5l59 -31l142 -238h-133l-138 228l-104 32v-260h-113v566z M723 1100q-23 0 -45.5 -1t-36.5 -7v-156h76q63 0 98 19.5t35 66.5q0 37 -34 57.5t-93 20.5z" />
<glyph unicode="&#xaf;" horiz-adv-x="964" d="M123 1391h719v-195h-719v195z" />
<glyph unicode="&#xb0;" horiz-adv-x="972" d="M119 1116q0 76 29.5 139.5t80 109.5t117 71.5t137.5 25.5q76 0 142.5 -23.5t118 -68.5t81 -108.5t29.5 -145.5q0 -80 -29.5 -142.5t-81 -106.5t-118 -67.5t-142.5 -23.5q-72 0 -138 23.5t-116.5 67.5t-80 106.5t-29.5 142.5zM340 1118q0 -63 43 -97t102 -34t103.5 34 t44.5 97t-44 98t-104 35q-59 0 -102 -36t-43 -97z" />
<glyph unicode="&#xb1;" horiz-adv-x="1169" d="M96 1081h361v357h256v-357h360v-245h-360v-226h-256v226h-361v245zM96 518h977v-246h-977v246z" />
<glyph unicode="&#xb2;" horiz-adv-x="905" d="M770 1386q0 -59 -17.5 -108t-46 -90t-68.5 -78t-85 -74l-107 -49v-10l132 24h227v-223h-694v160q57 35 126.5 83t131 100t102.5 107.5t41 106.5q0 53 -31.5 72.5t-93.5 19.5q-59 0 -112.5 -19t-94.5 -42l-78 201q78 43 167 64.5t169 21.5q158 0 245 -69t87 -198z" />
<glyph unicode="&#xb3;" horiz-adv-x="905" d="M371 971q100 0 140 25.5t40 70.5q0 43 -42 68.5t-157 25.5h-88v82l158 152l96 49l-129 -12h-256v206h631v-137l-193 -176l-75 -37v-10l65 6q117 -4 182.5 -64.5t65.5 -170.5q0 -74 -32 -128.5t-87 -89t-128 -51t-154 -16.5q-86 0 -160 14.5t-127 36.5l51 195 q93 -39 199 -39z" />
<glyph unicode="&#xb4;" horiz-adv-x="690" d="M285 1493h290v-59l-258 -265h-155z" />
<glyph unicode="&#xb5;" horiz-adv-x="1263" d="M401 1024v-545q0 -129 47.5 -196.5t159.5 -67.5q104 0 166 50t90 143v616h287v-690q0 -84 6 -169t29 -165h-213l-72 162h-8q-39 -74 -112.5 -130.5t-192.5 -56.5q-86 0 -132 30t-89 77h-11l47 -219v-273h-288v1434h286z" />
<glyph unicode="&#x3bc;" horiz-adv-x="1263" d="M401 1024v-545q0 -129 47.5 -196.5t159.5 -67.5q104 0 166 50t90 143v616h287v-690q0 -84 6 -169t29 -165h-213l-72 162h-8q-39 -74 -112.5 -130.5t-192.5 -56.5q-86 0 -132 30t-89 77h-11l47 -219v-273h-288v1434h286z" />
<glyph unicode="&#xb6;" horiz-adv-x="1173" d="M805 1434h237v-1700h-237v1700zM393 598q-74 0 -135 36t-106.5 94t-70 134t-24.5 156t29 154.5t83 133t129 93.5t167 35h166v-1700h-238v864z" />
<glyph unicode="&#xb7;" horiz-adv-x="555" d="M98 651q0 76 49.5 119t128.5 43q82 0 131.5 -43t49.5 -119q0 -72 -49.5 -117t-131.5 -45q-80 0 -129 45t-49 117z" />
<glyph unicode="&#xb8;" horiz-adv-x="751" d="M408 -106q98 -6 154 -43t56 -115q0 -49 -25.5 -85t-70.5 -60.5t-104.5 -37t-128.5 -12.5q-37 0 -74 2t-76 11l21 96q63 -4 102 1t60.5 14t28.5 22.5t7 29.5q0 35 -47 53.5t-151 22.5l127 195h178z" />
<glyph unicode="&#xb9;" horiz-adv-x="905" d="M154 999h219v308l20 98l-67 -68l-127 -84l-113 170l350 230h191v-654h196v-221h-669v221z" />
<glyph unicode="&#xba;" horiz-adv-x="974" d="M98 1110q0 92 29 157.5t81 107.5t122.5 62.5t156.5 20.5q84 0 156 -18.5t124 -60.5t81 -108.5t29 -160.5q0 -96 -29 -161.5t-81 -107.5t-124 -60.5t-156 -18.5q-86 0 -156.5 18.5t-122.5 60.5t-81 107.5t-29 161.5zM358 1110q0 -80 29 -125t100 -45q70 0 98.5 39 t28.5 131t-28.5 131t-98.5 39t-99.5 -39t-29.5 -131z" />
<glyph unicode="&#xbb;" horiz-adv-x="1085" d="M590 545l-344 -441l-154 132l174 231l103 80l-103 71l-184 232l149 129zM1022 549l-356 -471l-170 145l186 240l106 84l-106 74l-201 237l170 143z" />
<glyph unicode="&#xbc;" horiz-adv-x="1943" d="M1348 1464l186 -116l-958 -1377l-185 125zM1841 154h-170v-154h-221v154h-463v147l487 576h197v-531h170v-192zM1450 512l10 111h-10l-47 -99l-105 -129l-80 -67l119 18h113v166zM369 1102l20 96l-67 -65l-129 -84l-111 170l350 229h191v-875h-254v529z" />
<glyph unicode="&#xbd;" horiz-adv-x="1996" d="M1348 1464l186 -116l-958 -1377l-185 125zM1860 608q0 -59 -17.5 -108t-46 -90t-68.5 -78t-85 -74l-107 -49v-10l132 24h227v-223h-694v160q57 35 126.5 83t131 100t102.5 107.5t41 106.5q0 53 -31.5 72.5t-93.5 19.5q-59 0 -112.5 -19t-94.5 -42l-78 201q78 43 167 64.5 t169 21.5q158 0 245 -69t87 -198zM369 1102l20 96l-67 -65l-129 -84l-111 170l350 229h191v-875h-254v529z" />
<glyph unicode="&#xbe;" horiz-adv-x="2000" d="M1405 1464l186 -116l-958 -1377l-185 125zM1899 154h-170v-154h-221v154h-463v147l487 576h197v-531h170v-192zM1508 512l10 111h-10l-47 -99l-105 -129l-80 -67l119 18h113v166zM357 766q100 0 140 25.5t40 70.5q0 43 -42 68.5t-157 25.5h-88v82l158 152l96 49l-129 -12 h-256v206h631v-137l-193 -176l-75 -37v-10l65 6q117 -4 182.5 -64.5t65.5 -170.5q0 -74 -32 -128.5t-87 -89t-128 -51t-154 -16.5q-86 0 -160 14.5t-127 36.5l51 195q93 -39 199 -39z" />
<glyph unicode="&#xbf;" horiz-adv-x="1005" d="M705 594q12 -111 -10.5 -186.5t-62.5 -128t-89 -90.5l-93 -71q-44 -34 -74 -71t-30 -90q0 -72 44 -112t153 -40q35 0 75.5 8.5t81.5 22.5t79 32.5t67 39.5l110 -211q-84 -55 -193.5 -93t-266.5 -38q-209 0 -327 93t-118 253q0 111 30 179.5t75 115.5t98 81t98 72.5t76 93 t31 140.5h246zM395 887q0 76 49.5 119t128.5 43q82 0 131.5 -43t49.5 -119q0 -72 -49.5 -117t-131.5 -45q-80 0 -129 45t-49 117z" />
<glyph unicode="&#xc0;" horiz-adv-x="1347" d="M903 305h-483l-117 -305h-303l561 1444h223l564 -1444h-322zM504 545h327l-110 299l-49 227h-10l-50 -229zM848 1540h-234l-352 178v64h354z" />
<glyph unicode="&#xc1;" horiz-adv-x="1347" d="M903 305h-483l-117 -305h-303l561 1444h223l564 -1444h-322zM504 545h327l-110 299l-49 227h-10l-50 -229zM739 1782h353v-64l-357 -178h-229z" />
<glyph unicode="&#xc2;" horiz-adv-x="1347" d="M903 305h-483l-117 -305h-303l561 1444h223l564 -1444h-322zM504 545h327l-110 299l-49 227h-10l-50 -229zM572 1782h215l283 -189v-84h-222l-127 82l-45 70l-49 -68l-135 -84h-217v86z" />
<glyph unicode="&#xc3;" horiz-adv-x="1347" d="M903 305h-483l-117 -305h-303l561 1444h223l564 -1444h-322zM504 545h327l-110 299l-49 227h-10l-50 -229zM256 1647q68 72 132 98.5t128 26.5q49 0 98 -11.5t95.5 -26t90.5 -25.5t85 -11q35 0 67.5 10t63.5 39l51 -148q-59 -53 -116.5 -73.5t-112.5 -20.5 q-49 0 -97.5 11.5t-94.5 25.5t-90 25.5t-87 11.5t-84 -15.5t-82 -56.5z" />
<glyph unicode="&#xc4;" horiz-adv-x="1347" d="M903 305h-483l-117 -305h-303l561 1444h223l564 -1444h-322zM504 545h327l-110 299l-49 227h-10l-50 -229zM279 1634q0 55 40 89t130 34q86 0 126 -33.5t40 -89.5q0 -53 -40 -84.5t-126 -31.5q-90 0 -130 31.5t-40 84.5zM756 1634q0 55 40 89t126 34q90 0 130 -33.5 t40 -89.5q0 -53 -40 -84.5t-130 -31.5q-86 0 -126 31.5t-40 84.5z" />
<glyph unicode="&#xc5;" horiz-adv-x="1347" d="M391 1581q0 37 12.5 71t44 59.5t87 39.5t139.5 14q158 0 221 -49t63 -135q0 -59 -34.5 -104t-126.5 -66l551 -1411h-322l-123 305h-483l-117 -305h-303l549 1411q-88 18 -123 63.5t-35 106.5zM504 545h327l-110 299l-49 227h-10l-50 -229zM575 1581q0 -29 23 -45t76 -16 q57 0 78.5 15t21.5 46q0 33 -23.5 49.5t-76.5 16.5q-99 0 -99 -66z" />
<glyph unicode="&#xc6;" horiz-adv-x="1914" d="M874 1085l-79 -217l-179 -284h273v501h-15zM889 338h-414l-217 -338h-324l945 1434h933v-267h-620v-311h565v-266h-565v-324h631v-266h-934v338z" />
<glyph unicode="&#xc7;" horiz-adv-x="1243" d="M1186 61q-55 -39 -139 -59t-179 -27l-49 -81q98 -6 154.5 -43t56.5 -115q0 -49 -25.5 -85t-70.5 -60.5t-104.5 -37t-129.5 -12.5q-37 0 -73.5 2t-75.5 11l20 96q63 -4 102.5 1t61 14t28.5 22.5t7 29.5q0 35 -47 53.5t-152 22.5l119 184q-123 12 -233.5 59.5t-193.5 137.5 t-132 224t-49 319q0 209 65.5 351t168 229t227.5 126t245 39q133 0 224.5 -16t150.5 -39l-59 -254q-51 23 -120 33t-173 10q-92 0 -167 -29.5t-128 -89t-83 -149.5t-30 -211q0 -106 27 -194.5t80 -152t135 -98t191 -34.5q100 0 168.5 18t121.5 47z" />
<glyph unicode="&#xc8;" horiz-adv-x="1159" d="M133 1434h924v-267h-621v-311h563v-266h-563v-324h631v-266h-934v1434zM785 1540h-234l-352 178v64h354z" />
<glyph unicode="&#xc9;" horiz-adv-x="1159" d="M133 1434h924v-267h-621v-311h563v-266h-563v-324h631v-266h-934v1434zM653 1782h353v-64l-357 -178h-229z" />
<glyph unicode="&#xca;" horiz-adv-x="1159" d="M133 1434h924v-267h-621v-311h563v-266h-563v-324h631v-266h-934v1434zM488 1782h215l283 -189v-84h-222l-127 82l-45 70l-49 -68l-135 -84h-217v86z" />
<glyph unicode="&#xcb;" horiz-adv-x="1159" d="M133 1434h924v-267h-621v-311h563v-266h-563v-324h631v-266h-934v1434zM186 1634q0 55 40 89t130 34q86 0 126 -33.5t40 -89.5q0 -53 -40 -84.5t-126 -31.5q-90 0 -130 31.5t-40 84.5zM663 1634q0 55 40 89t126 34q90 0 130 -33.5t40 -89.5q0 -53 -40 -84.5t-130 -31.5 q-86 0 -126 31.5t-40 84.5z" />
<glyph unicode="&#xcc;" horiz-adv-x="794" d="M246 1270h-164v164h631v-164h-164v-1106h164v-164h-631v164h164v1106zM613 1540h-234l-352 178v64h354z" />
<glyph unicode="&#xcd;" horiz-adv-x="794" d="M246 1270h-164v164h631v-164h-164v-1106h164v-164h-631v164h164v1106zM428 1782h353v-64l-357 -178h-229z" />
<glyph unicode="&#xce;" horiz-adv-x="794" d="M246 1270h-164v164h631v-164h-164v-1106h164v-164h-631v164h164v1106zM299 1782h215l283 -189v-84h-222l-127 82l-45 70l-49 -68l-135 -84h-217v86z" />
<glyph unicode="&#xcf;" horiz-adv-x="794" d="M246 1270h-164v164h631v-164h-164v-1106h164v-164h-631v164h164v1106zM-6 1634q0 55 40 89t130 34q86 0 126 -33.5t40 -89.5q0 -53 -40 -84.5t-126 -31.5q-90 0 -130 31.5t-40 84.5zM471 1634q0 55 40 89t126 34q90 0 130 -33.5t40 -89.5q0 -53 -40 -84.5t-130 -31.5 q-86 0 -126 31.5t-40 84.5z" />
<glyph unicode="&#xd0;" horiz-adv-x="1462" d="M-14 844h172v590q45 6 103 10t120.5 6t122 3t106.5 1q205 0 351.5 -54t239.5 -150.5t136 -229.5t43 -291q0 -143 -42 -278.5t-136 -241t-245.5 -169t-372.5 -63.5q-35 0 -95.5 2.5t-125 5.5t-121 6t-84.5 7v606h-172v240zM461 844h276v-240h-276v-352q10 -2 32 -3l45 -2 l45 -2q22 -1 31 -1q131 0 217.5 41t136.5 108.5t70.5 153.5t20.5 178q0 76 -18.5 158t-66.5 149.5t-130 111.5t-211 44q-47 0 -96.5 -1t-75.5 -5v-338z" />
<glyph unicode="&#xd1;" horiz-adv-x="1460" d="M520 748l-123 215h-10l33 -218v-745h-287v1444h219l592 -764l117 -209h12l-33 211v752h287v-1444h-219zM307 1647q68 72 132 98.5t128 26.5q49 0 98 -11.5t95.5 -26t90.5 -25.5t85 -11q35 0 67.5 10t63.5 39l51 -148q-59 -53 -116.5 -73.5t-112.5 -20.5q-49 0 -97.5 11.5 t-94.5 25.5t-90 25.5t-87 11.5t-84 -15.5t-82 -56.5z" />
<glyph unicode="&#xd2;" horiz-adv-x="1488" d="M82 717q0 176 45 315t130 234.5t208 145.5t278 50q166 0 290 -54t207 -152.5t125 -235.5t42 -303q0 -176 -46 -315.5t-132 -234.5t-209 -145.5t-277 -50.5q-166 0 -289.5 54.5t-206.5 152.5t-124 235.5t-41 303.5zM403 717q0 -106 20.5 -194.5t61.5 -152t105.5 -98 t152.5 -34.5q162 0 252 110.5t90 368.5q0 102 -18 190t-60 152.5t-106.5 100.5t-157.5 36q-160 0 -250 -114.5t-90 -364.5zM914 1540h-234l-352 178v64h354z" />
<glyph unicode="&#xd3;" horiz-adv-x="1488" d="M82 717q0 176 45 315t130 234.5t208 145.5t278 50q166 0 290 -54t207 -152.5t125 -235.5t42 -303q0 -176 -46 -315.5t-132 -234.5t-209 -145.5t-277 -50.5q-166 0 -289.5 54.5t-206.5 152.5t-124 235.5t-41 303.5zM403 717q0 -106 20.5 -194.5t61.5 -152t105.5 -98 t152.5 -34.5q162 0 252 110.5t90 368.5q0 102 -18 190t-60 152.5t-106.5 100.5t-157.5 36q-160 0 -250 -114.5t-90 -364.5zM811 1782h353v-64l-357 -178h-229z" />
<glyph unicode="&#xd4;" horiz-adv-x="1488" d="M82 717q0 176 45 315t130 234.5t208 145.5t278 50q166 0 290 -54t207 -152.5t125 -235.5t42 -303q0 -176 -46 -315.5t-132 -234.5t-209 -145.5t-277 -50.5q-166 0 -289.5 54.5t-206.5 152.5t-124 235.5t-41 303.5zM403 717q0 -106 20.5 -194.5t61.5 -152t105.5 -98 t152.5 -34.5q162 0 252 110.5t90 368.5q0 102 -18 190t-60 152.5t-106.5 100.5t-157.5 36q-160 0 -250 -114.5t-90 -364.5zM639 1782h215l283 -189v-84h-222l-127 82l-45 70l-49 -68l-135 -84h-217v86z" />
<glyph unicode="&#xd5;" horiz-adv-x="1488" d="M82 717q0 176 45 315t130 234.5t208 145.5t278 50q166 0 290 -54t207 -152.5t125 -235.5t42 -303q0 -176 -46 -315.5t-132 -234.5t-209 -145.5t-277 -50.5q-166 0 -289.5 54.5t-206.5 152.5t-124 235.5t-41 303.5zM403 717q0 -106 20.5 -194.5t61.5 -152t105.5 -98 t152.5 -34.5q162 0 252 110.5t90 368.5q0 102 -18 190t-60 152.5t-106.5 100.5t-157.5 36q-160 0 -250 -114.5t-90 -364.5zM336 1647q68 72 132 98.5t128 26.5q49 0 98 -11.5t95.5 -26t90.5 -25.5t85 -11q35 0 67.5 10t63.5 39l51 -148q-59 -53 -116.5 -73.5t-112.5 -20.5 q-49 0 -97.5 11.5t-94.5 25.5t-90 25.5t-87 11.5t-84 -15.5t-82 -56.5z" />
<glyph unicode="&#xd6;" horiz-adv-x="1488" d="M82 717q0 176 45 315t130 234.5t208 145.5t278 50q166 0 290 -54t207 -152.5t125 -235.5t42 -303q0 -176 -46 -315.5t-132 -234.5t-209 -145.5t-277 -50.5q-166 0 -289.5 54.5t-206.5 152.5t-124 235.5t-41 303.5zM403 717q0 -106 20.5 -194.5t61.5 -152t105.5 -98 t152.5 -34.5q162 0 252 110.5t90 368.5q0 102 -18 190t-60 152.5t-106.5 100.5t-157.5 36q-160 0 -250 -114.5t-90 -364.5zM336 1634q0 55 40 89t130 34q86 0 126 -33.5t40 -89.5q0 -53 -40 -84.5t-126 -31.5q-90 0 -130 31.5t-40 84.5zM813 1634q0 55 40 89t126 34 q90 0 130 -33.5t40 -89.5q0 -53 -40 -84.5t-130 -31.5q-86 0 -126 31.5t-40 84.5z" />
<glyph unicode="&#xd7;" horiz-adv-x="1169" d="M297 1135l289 -275l286 275l170 -183l-278 -258l278 -264l-170 -180l-286 274l-291 -276l-168 180l281 266l-279 258z" />
<glyph unicode="&#xd8;" horiz-adv-x="1488" d="M82 717q0 176 45 315t130 234.5t208 145.5t278 50q190 0 332 -76l53 78l195 -125l-70 -100q78 -98 116 -230t38 -292q0 -176 -46 -315.5t-132 -234.5t-209 -145.5t-277 -50.5q-94 0 -172.5 17.5t-146.5 50.5l-45 -68l-191 123l58 84q-84 98 -124 235.5t-40 303.5z M913 1151q-72 45 -170 45q-160 0 -250 -114.5t-90 -364.5q0 -150 37 -256zM588 274q63 -37 155 -36q162 0 252 110.5t90 368.5q0 131 -30 233z" />
<glyph unicode="&#xd9;" horiz-adv-x="1390" d="M979 1434h287v-920q0 -139 -40 -241.5t-113 -168t-174 -97.5t-222 -32q-289 0 -440.5 126t-151.5 378v955h303v-899q0 -164 71.5 -228.5t213.5 -64.5q135 0 200.5 68.5t65.5 224.5v899zM877 1540h-234l-352 178v64h354z" />
<glyph unicode="&#xda;" horiz-adv-x="1390" d="M979 1434h287v-920q0 -139 -40 -241.5t-113 -168t-174 -97.5t-222 -32q-289 0 -440.5 126t-151.5 378v955h303v-899q0 -164 71.5 -228.5t213.5 -64.5q135 0 200.5 68.5t65.5 224.5v899zM811 1782h353v-64l-357 -178h-229z" />
<glyph unicode="&#xdb;" horiz-adv-x="1390" d="M979 1434h287v-920q0 -139 -40 -241.5t-113 -168t-174 -97.5t-222 -32q-289 0 -440.5 126t-151.5 378v955h303v-899q0 -164 71.5 -228.5t213.5 -64.5q135 0 200.5 68.5t65.5 224.5v899zM608 1782h215l283 -189v-84h-222l-127 82l-45 70l-49 -68l-135 -84h-217v86z" />
<glyph unicode="&#xdc;" horiz-adv-x="1390" d="M979 1434h287v-920q0 -139 -40 -241.5t-113 -168t-174 -97.5t-222 -32q-289 0 -440.5 126t-151.5 378v955h303v-899q0 -164 71.5 -228.5t213.5 -64.5q135 0 200.5 68.5t65.5 224.5v899zM295 1634q0 55 40 89t130 34q86 0 126 -33.5t40 -89.5q0 -53 -40 -84.5t-126 -31.5 q-90 0 -130 31.5t-40 84.5zM772 1634q0 55 40 89t126 34q90 0 130 -33.5t40 -89.5q0 -53 -40 -84.5t-130 -31.5q-86 0 -126 31.5t-40 84.5z" />
<glyph unicode="&#xdd;" horiz-adv-x="1318" d="M508 528l-512 906h360l287 -527l33 -153h10l35 157l276 523h326l-512 -904v-530h-303v528zM725 1782h353v-64l-357 -178h-229z" />
<glyph unicode="&#xde;" horiz-adv-x="1269" d="M133 1434h303v-148q31 2 62.5 3t64.5 1q141 0 260 -17.5t207 -69.5t137.5 -145t49.5 -247q0 -135 -46.5 -230.5t-128 -154.5t-191.5 -87t-239 -28h-34q-25 0 -52.5 1t-52 3t-37.5 4v-319h-303v1434zM436 588q8 -2 26.5 -4t39 -3t38 -2t27.5 -1q72 0 132.5 8t103.5 34.5 t67.5 72.5t24.5 124q0 66 -21.5 106t-61.5 62.5t-98.5 30.5t-129.5 8q-43 0 -83 -2t-65 -8v-426z" />
<glyph unicode="&#xdf;" horiz-adv-x="1419" d="M860 1120q0 20 -6 39t-26.5 32t-56.5 20.5t-95 7.5q-109 0 -151 -69t-42 -177v-973h-286v836h-162v239h162q0 199 132 284t371 85q121 0 206 -21.5t139.5 -59.5t79 -92t24.5 -120q0 -92 -34 -142.5t-76 -85t-75.5 -67.5t-33.5 -90q0 -39 31.5 -62.5t78.5 -44.5l102 -43 q54 -23 101 -58.5t79 -89.5t32 -138q0 -66 -20.5 -130.5t-66.5 -115.5t-122 -83t-187 -32q-113 0 -207 27t-159 67l84 203l52 -27q26 -13 55.5 -22.5t66.5 -15.5t86 -6q66 0 98.5 31.5t32.5 84.5q0 51 -31.5 80t-79 49.5t-101.5 38t-101 47t-79 77.5t-32 130q0 88 34 143.5 t75 94.5l74 71q34 33 34 78z" />
<glyph unicode="&#xe0;" horiz-adv-x="1185" d="M137 1001q92 41 226.5 68t277.5 27q113 0 189.5 -27t121.5 -77t64.5 -120.5t19.5 -156.5q0 -104 -8 -206.5t-8 -217.5q0 -78 10 -151.5t33 -141.5h-234l-47 160h-24q-53 -72 -135 -123t-211 -51q-78 0 -142.5 22.5t-110.5 64.5t-72 99t-26 125q0 182 122 275.5t370 93.5 q57 0 114.5 -9.5l80.5 -13.5q6 43 6 74q0 78 -39 114.5t-146 36.5q-98 0 -191 -23.5t-165 -58.5zM512 213q96 0 153.5 45t84.5 94v123q-10 4 -32 8l-47.5 8.5t-51 6.5t-46.5 2q-111 0 -164 -40t-53 -100q0 -74 42 -110.5t114 -36.5zM717 1169h-152l-287 263v61h301z" />
<glyph unicode="&#xe1;" horiz-adv-x="1185" d="M137 1001q92 41 226.5 68t277.5 27q113 0 189.5 -27t121.5 -77t64.5 -120.5t19.5 -156.5q0 -104 -8 -206.5t-8 -217.5q0 -78 10 -151.5t33 -141.5h-234l-47 160h-24q-53 -72 -135 -123t-211 -51q-78 0 -142.5 22.5t-110.5 64.5t-72 99t-26 125q0 182 122 275.5t370 93.5 q57 0 114.5 -9.5l80.5 -13.5q6 43 6 74q0 78 -39 114.5t-146 36.5q-98 0 -191 -23.5t-165 -58.5zM512 213q96 0 153.5 45t84.5 94v123q-10 4 -32 8l-47.5 8.5t-51 6.5t-46.5 2q-111 0 -164 -40t-53 -100q0 -74 42 -110.5t114 -36.5zM588 1493h290v-59l-258 -265h-155z" />
<glyph unicode="&#xe2;" horiz-adv-x="1185" d="M137 1001q92 41 226.5 68t277.5 27q113 0 189.5 -27t121.5 -77t64.5 -120.5t19.5 -156.5q0 -104 -8 -206.5t-8 -217.5q0 -78 10 -151.5t33 -141.5h-234l-47 160h-24q-53 -72 -135 -123t-211 -51q-78 0 -142.5 22.5t-110.5 64.5t-72 99t-26 125q0 182 122 275.5t370 93.5 q57 0 114.5 -9.5l80.5 -13.5q6 43 6 74q0 78 -39 114.5t-146 36.5q-98 0 -191 -23.5t-165 -58.5zM512 213q96 0 153.5 45t84.5 94v123q-10 4 -32 8l-47.5 8.5t-51 6.5t-46.5 2q-111 0 -164 -40t-53 -100q0 -74 42 -110.5t114 -36.5zM516 1540h188l256 -385h-225l-86 141 l-49 131l-51 -129l-107 -143h-209z" />
<glyph unicode="&#xe3;" horiz-adv-x="1185" d="M137 1001q92 41 226.5 68t277.5 27q113 0 189.5 -27t121.5 -77t64.5 -120.5t19.5 -156.5q0 -104 -8 -206.5t-8 -217.5q0 -78 10 -151.5t33 -141.5h-234l-47 160h-24q-53 -72 -135 -123t-211 -51q-78 0 -142.5 22.5t-110.5 64.5t-72 99t-26 125q0 182 122 275.5t370 93.5 q57 0 114.5 -9.5l80.5 -13.5q6 43 6 74q0 78 -39 114.5t-146 36.5q-98 0 -191 -23.5t-165 -58.5zM512 213q96 0 153.5 45t84.5 94v123q-10 4 -32 8l-47.5 8.5t-51 6.5t-46.5 2q-111 0 -164 -40t-53 -100q0 -74 42 -110.5t114 -36.5zM219 1386q68 78 126.5 109t111.5 31 q45 0 87 -14.5t83 -33t83 -32.5t89 -14q68 0 139 53l35 -154q-61 -68 -116.5 -95.5t-106.5 -27.5q-47 0 -89 15.5l-85 33t-87.5 33t-93.5 15.5q-35 0 -69.5 -11.5t-75.5 -44.5z" />
<glyph unicode="&#xe4;" horiz-adv-x="1185" d="M137 1001q92 41 226.5 68t277.5 27q113 0 189.5 -27t121.5 -77t64.5 -120.5t19.5 -156.5q0 -104 -8 -206.5t-8 -217.5q0 -78 10 -151.5t33 -141.5h-234l-47 160h-24q-53 -72 -135 -123t-211 -51q-78 0 -142.5 22.5t-110.5 64.5t-72 99t-26 125q0 182 122 275.5t370 93.5 q57 0 114.5 -9.5l80.5 -13.5q6 43 6 74q0 78 -39 114.5t-146 36.5q-98 0 -191 -23.5t-165 -58.5zM512 213q96 0 153.5 45t84.5 94v123q-10 4 -32 8l-47.5 8.5t-51 6.5t-46.5 2q-111 0 -164 -40t-53 -100q0 -74 42 -110.5t114 -36.5zM164 1346q0 72 44 114.5t114 42.5 t112 -43t42 -114q0 -61 -42 -104.5t-112 -43.5t-114 43.5t-44 104.5zM682 1346q0 72 42 114.5t112 42.5q72 0 114 -43t42 -114q0 -61 -42 -104.5t-114 -43.5q-70 0 -112 43.5t-42 104.5z" />
<glyph unicode="&#xe5;" horiz-adv-x="1185" d="M137 1001q92 41 226.5 68t277.5 27q113 0 189.5 -27t121.5 -77t64.5 -120.5t19.5 -156.5q0 -104 -8 -206.5t-8 -217.5q0 -78 10 -151.5t33 -141.5h-234l-47 160h-24q-53 -72 -135 -123t-211 -51q-78 0 -142.5 22.5t-110.5 64.5t-72 99t-26 125q0 182 122 275.5t370 93.5 q57 0 114.5 -9.5l80.5 -13.5q6 43 6 74q0 78 -39 114.5t-146 36.5q-98 0 -191 -23.5t-165 -58.5zM512 213q96 0 153.5 45t84.5 94v123q-10 4 -32 8l-47.5 8.5t-51 6.5t-46.5 2q-111 0 -164 -40t-53 -100q0 -74 42 -110.5t114 -36.5zM354 1362q0 86 62.5 144.5t185.5 58.5 q117 0 183.5 -52.5t66.5 -150.5q0 -39 -17.5 -75t-49 -63.5t-79 -44t-104.5 -16.5q-119 0 -183.5 55.5t-64.5 143.5zM502 1362q0 -35 29.5 -53.5t70.5 -18.5q45 0 75 17.5t30 54.5q0 39 -32 58.5t-73 19.5t-70.5 -18.5t-29.5 -59.5z" />
<glyph unicode="&#xe6;" horiz-adv-x="1873" d="M512 213q96 0 152.5 43t85.5 90v129l-57 14.5t-103 8.5q-117 0 -175.5 -42t-58.5 -114q0 -61 43 -95t113 -34zM831 170q-61 -78 -161.5 -132t-257.5 -54q-78 0 -142.5 22.5t-110.5 64.5t-72 99t-26 125q0 182 127 274.5t361 92.5q66 0 123 -8.5t76 -12.5q4 29 5 43t1 29 q0 66 -40 108.5t-147 42.5q-94 0 -188 -21.5t-166 -54.5l-76 201q90 45 217 76t269 31q121 0 193.5 -29t125.5 -90q59 61 153.5 95t204.5 34q86 0 170 -21.5t148.5 -71.5t104.5 -135t40 -212q0 -43 -4 -93.5t-16 -105.5h-719q10 -135 83 -203.5t230 -68.5q94 0 172 27.5 t121 56.5l94 -183q-35 -27 -83 -50t-106 -39.5t-122.5 -27t-132.5 -10.5q-145 0 -262 46t-176 155h-11zM1296 879q-129 0 -189 -69t-71 -173h461q10 117 -40 179.5t-161 62.5z" />
<glyph unicode="&#xe7;" horiz-adv-x="1024" d="M958 66q-53 -35 -124.5 -57.5t-149.5 -33.5l-49 -81q98 -6 154.5 -43t56.5 -115q0 -49 -25.5 -85t-70.5 -60.5t-104.5 -37t-129.5 -12.5q-37 0 -73.5 2t-75.5 11l20 96q63 -4 102 1t60.5 14t29 22.5t7.5 29.5q0 35 -47 53.5t-152 22.5l117 182q-115 12 -194 58.5 t-129 119t-72.5 170t-22.5 214.5q0 268 132 418.5t384 150.5q123 0 202 -19.5t140 -50.5l-70 -229q-53 23 -105 34t-122 11q-129 0 -197.5 -75t-68.5 -240q0 -66 16.5 -122.5t51 -99.5t88 -67.5t125.5 -24.5q86 0 136 15.5t95 42.5z" />
<glyph unicode="&#xe8;" horiz-adv-x="1216" d="M1067 98q-70 -53 -189.5 -91t-256.5 -38q-276 0 -405.5 151.5t-129.5 416.5q0 281 145.5 425t409.5 144q86 0 170 -21.5t149.5 -71.5t105.5 -135t40 -210q0 -43 -5 -94.5t-18 -106.5h-716q10 -139 80.5 -205.5t230.5 -66.5q96 0 173 27.5t118 56.5zM637 881 q-127 0 -188.5 -69t-71.5 -175h463q1 16 1 31q0 91 -42 147q-49 66 -162 66zM760 1169h-152l-287 263v61h301z" />
<glyph unicode="&#xe9;" horiz-adv-x="1216" d="M1067 98q-70 -53 -189.5 -91t-256.5 -38q-276 0 -405.5 151.5t-129.5 416.5q0 281 145.5 425t409.5 144q86 0 170 -21.5t149.5 -71.5t105.5 -135t40 -210q0 -43 -5 -94.5t-18 -106.5h-716q10 -139 80.5 -205.5t230.5 -66.5q96 0 173 27.5t118 56.5zM637 881 q-127 0 -188.5 -69t-71.5 -175h463q1 16 1 31q0 91 -42 147q-49 66 -162 66zM672 1493h290v-59l-258 -265h-155z" />
<glyph unicode="&#xea;" horiz-adv-x="1216" d="M1067 98q-70 -53 -189.5 -91t-256.5 -38q-276 0 -405.5 151.5t-129.5 416.5q0 281 145.5 425t409.5 144q86 0 170 -21.5t149.5 -71.5t105.5 -135t40 -210q0 -43 -5 -94.5t-18 -106.5h-716q10 -139 80.5 -205.5t230.5 -66.5q96 0 173 27.5t118 56.5zM637 881 q-127 0 -188.5 -69t-71.5 -175h463q1 16 1 31q0 91 -42 147q-49 66 -162 66zM524 1540h188l256 -385h-225l-86 141l-49 131l-51 -129l-107 -143h-209z" />
<glyph unicode="&#xeb;" horiz-adv-x="1216" d="M1067 98q-70 -53 -189.5 -91t-256.5 -38q-276 0 -405.5 151.5t-129.5 416.5q0 281 145.5 425t409.5 144q86 0 170 -21.5t149.5 -71.5t105.5 -135t40 -210q0 -43 -5 -94.5t-18 -106.5h-716q10 -139 80.5 -205.5t230.5 -66.5q96 0 173 27.5t118 56.5zM637 881 q-127 0 -188.5 -69t-71.5 -175h463q1 16 1 31q0 91 -42 147q-49 66 -162 66zM192 1346q0 72 44 114.5t114 42.5t112 -43t42 -114q0 -61 -42 -104.5t-112 -43.5t-114 43.5t-44 104.5zM710 1346q0 72 42 114.5t112 42.5q72 0 114 -43t42 -114q0 -61 -42 -104.5t-114 -43.5 q-70 0 -112 43.5t-42 104.5z" />
<glyph unicode="&#xec;" horiz-adv-x="649" d="M182 1075h287v-1075h-287v1075zM424 1169h-152l-287 263v61h301z" />
<glyph unicode="&#xed;" horiz-adv-x="649" d="M182 1075h287v-1075h-287v1075zM295 1493h290v-59l-258 -265h-155z" />
<glyph unicode="&#xee;" horiz-adv-x="649" d="M182 1075h287v-1075h-287v1075zM246 1540h188l256 -385h-225l-86 141l-49 131l-51 -129l-107 -143h-209z" />
<glyph unicode="&#xef;" horiz-adv-x="649" d="M182 1075h287v-1075h-287v1075zM-88 1346q0 72 44 114.5t114 42.5t112 -43t42 -114q0 -61 -42 -104.5t-112 -43.5t-114 43.5t-44 104.5zM430 1346q0 72 42 114.5t112 42.5q72 0 114 -43t42 -114q0 -61 -42 -104.5t-114 -43.5q-70 0 -112 43.5t-42 104.5z" />
<glyph unicode="&#xf0;" horiz-adv-x="1316" d="M512 1130l49 134q-41 6 -84 6q-70 0 -151 -17v187q8 0 34.5 3t60.5 5t72.5 4t75.5 2q16 0 31.5 -1t32.5 -3l45 117l131 -54l-33 -86q98 -27 182 -82t144.5 -147t94.5 -223t34 -307q0 -170 -43 -300t-120 -218.5t-184.5 -134.5t-236.5 -46q-139 0 -243.5 40t-175 110.5 t-106.5 170t-36 216.5q0 119 40 216t112.5 165.5t173 105.5t221.5 37q86 0 172 -21.5t145 -68.5q-23 104 -88 175t-162 112l-53 -144zM946 711q-55 41 -130 60.5t-148 19.5q-147 0 -226.5 -82t-79.5 -211q0 -143 82 -216t220 -73q66 0 120 26.5t94 75.5t61.5 118t21.5 153 q0 27 -3.5 64.5t-11.5 64.5z" />
<glyph unicode="&#xf1;" horiz-adv-x="1306" d="M872 0v590q0 139 -43 200.5t-151 61.5q-92 0 -156.5 -50t-89.5 -128q0 -168 1 -337t1 -337h-287v1075h226l30 -153h31q53 76 141.5 130t229.5 54q86 0 152.5 -21.5t110.5 -74t67.5 -140.5t23.5 -221v-649h-287zM274 1386q68 78 126.5 109t111.5 31q45 0 87 -14.5t83 -33 t83 -32.5t89 -14q68 0 139 53l35 -154q-61 -68 -116.5 -95.5t-106.5 -27.5q-47 0 -89 15.5l-85 33t-87.5 33t-93.5 15.5q-35 0 -69.5 -11.5t-75.5 -44.5z" />
<glyph unicode="&#xf2;" horiz-adv-x="1261" d="M86 537q0 266 141.5 417.5t403.5 151.5q137 0 239.5 -43t170 -120t101.5 -180.5t34 -225.5q0 -131 -37 -236.5t-106.5 -179.5t-171 -113t-230.5 -39q-139 0 -241.5 43t-170 120t-100.5 180.5t-33 224.5zM381 537q0 -68 14.5 -127.5t44 -103.5t76.5 -70.5t115 -26.5 q250 0 250 328q0 72 -13.5 132t-43 104t-78 68.5t-115.5 24.5q-117 0 -183.5 -77.5t-66.5 -251.5zM768 1169h-152l-287 263v61h301z" />
<glyph unicode="&#xf3;" horiz-adv-x="1261" d="M86 537q0 266 141.5 417.5t403.5 151.5q137 0 239.5 -43t170 -120t101.5 -180.5t34 -225.5q0 -131 -37 -236.5t-106.5 -179.5t-171 -113t-230.5 -39q-139 0 -241.5 43t-170 120t-100.5 180.5t-33 224.5zM381 537q0 -68 14.5 -127.5t44 -103.5t76.5 -70.5t115 -26.5 q250 0 250 328q0 72 -13.5 132t-43 104t-78 68.5t-115.5 24.5q-117 0 -183.5 -77.5t-66.5 -251.5zM674 1493h290v-59l-258 -265h-155z" />
<glyph unicode="&#xf4;" horiz-adv-x="1261" d="M86 537q0 266 141.5 417.5t403.5 151.5q137 0 239.5 -43t170 -120t101.5 -180.5t34 -225.5q0 -131 -37 -236.5t-106.5 -179.5t-171 -113t-230.5 -39q-139 0 -241.5 43t-170 120t-100.5 180.5t-33 224.5zM381 537q0 -68 14.5 -127.5t44 -103.5t76.5 -70.5t115 -26.5 q250 0 250 328q0 72 -13.5 132t-43 104t-78 68.5t-115.5 24.5q-117 0 -183.5 -77.5t-66.5 -251.5zM549 1540h188l256 -385h-225l-86 141l-49 131l-51 -129l-107 -143h-209z" />
<glyph unicode="&#xf5;" horiz-adv-x="1261" d="M86 537q0 266 141.5 417.5t403.5 151.5q137 0 239.5 -43t170 -120t101.5 -180.5t34 -225.5q0 -131 -37 -236.5t-106.5 -179.5t-171 -113t-230.5 -39q-139 0 -241.5 43t-170 120t-100.5 180.5t-33 224.5zM381 537q0 -68 14.5 -127.5t44 -103.5t76.5 -70.5t115 -26.5 q250 0 250 328q0 72 -13.5 132t-43 104t-78 68.5t-115.5 24.5q-117 0 -183.5 -77.5t-66.5 -251.5zM258 1386q68 78 126.5 109t111.5 31q45 0 87 -14.5t83 -33t83 -32.5t89 -14q68 0 139 53l35 -154q-61 -68 -116.5 -95.5t-106.5 -27.5q-47 0 -89 15.5l-85 33t-87.5 33 t-93.5 15.5q-35 0 -69.5 -11.5t-75.5 -44.5z" />
<glyph unicode="&#xf6;" horiz-adv-x="1261" d="M86 537q0 266 141.5 417.5t403.5 151.5q137 0 239.5 -43t170 -120t101.5 -180.5t34 -225.5q0 -131 -37 -236.5t-106.5 -179.5t-171 -113t-230.5 -39q-139 0 -241.5 43t-170 120t-100.5 180.5t-33 224.5zM381 537q0 -68 14.5 -127.5t44 -103.5t76.5 -70.5t115 -26.5 q250 0 250 328q0 72 -13.5 132t-43 104t-78 68.5t-115.5 24.5q-117 0 -183.5 -77.5t-66.5 -251.5zM221 1346q0 72 44 114.5t114 42.5t112 -43t42 -114q0 -61 -42 -104.5t-112 -43.5t-114 43.5t-44 104.5zM739 1346q0 72 42 114.5t112 42.5q72 0 114 -43t42 -114 q0 -61 -42 -104.5t-114 -43.5q-70 0 -112 43.5t-42 104.5z" />
<glyph unicode="&#xf7;" horiz-adv-x="1169" d="M96 813h977v-246h-977v246zM406 1102q0 76 49 119t129 43q82 0 131 -43t49 -119q0 -72 -49 -117t-131 -45q-80 0 -129 45t-49 117zM406 279q0 76 49 118.5t129 42.5q82 0 131 -43t49 -118q0 -72 -49 -117t-131 -45q-80 0 -129 45t-49 117z" />
<glyph unicode="&#xf8;" horiz-adv-x="1263" d="M86 537q0 131 37 236.5t106.5 179t171 113.5t230.5 40q76 0 140.5 -13.5t117.5 -35.5l59 76l172 -138l-61 -71q59 -76 89 -173.5t30 -213.5q0 -131 -37 -236.5t-106.5 -179.5t-171 -113t-232.5 -39q-160 0 -275 58l-59 -76l-178 137l69 82q-53 72 -77.5 165t-24.5 202z M498 246q51 -37 133 -37q252 0 252 328q0 47 -8.5 90t-20.5 78zM758 834q-55 33 -127 32q-115 0 -182.5 -78.5t-67.5 -250.5q0 -80 22 -152z" />
<glyph unicode="&#xf9;" horiz-adv-x="1314" d="M434 1075v-596q0 -133 37 -194.5t141 -61.5q90 0 151.5 47t90.5 119v686h287v-747q0 -86 9 -172t26 -156h-211l-56 168h-22q-53 -86 -151.5 -142.5t-225.5 -56.5q-88 0 -155.5 22.5t-113.5 75t-70 138.5t-24 213v657h287zM754 1169h-152l-287 263v61h301z" />
<glyph unicode="&#xfa;" horiz-adv-x="1314" d="M434 1075v-596q0 -133 37 -194.5t141 -61.5q90 0 151.5 47t90.5 119v686h287v-747q0 -86 9 -172t26 -156h-211l-56 168h-22q-53 -86 -151.5 -142.5t-225.5 -56.5q-88 0 -155.5 22.5t-113.5 75t-70 138.5t-24 213v657h287zM658 1493h290v-59l-258 -265h-155z" />
<glyph unicode="&#xfb;" horiz-adv-x="1314" d="M434 1075v-596q0 -133 37 -194.5t141 -61.5q90 0 151.5 47t90.5 119v686h287v-747q0 -86 9 -172t26 -156h-211l-56 168h-22q-53 -86 -151.5 -142.5t-225.5 -56.5q-88 0 -155.5 22.5t-113.5 75t-70 138.5t-24 213v657h287zM569 1540h188l256 -385h-225l-86 141l-49 131 l-51 -129l-107 -143h-209z" />
<glyph unicode="&#xfc;" horiz-adv-x="1314" d="M434 1075v-596q0 -133 37 -194.5t141 -61.5q90 0 151.5 47t90.5 119v686h287v-747q0 -86 9 -172t26 -156h-211l-56 168h-22q-53 -86 -151.5 -142.5t-225.5 -56.5q-88 0 -155.5 22.5t-113.5 75t-70 138.5t-24 213v657h287zM233 1346q0 72 44 114.5t114 42.5t112 -43 t42 -114q0 -61 -42 -104.5t-112 -43.5t-114 43.5t-44 104.5zM751 1346q0 72 42 114.5t112 42.5q72 0 114 -43t42 -114q0 -61 -42 -104.5t-114 -43.5q-70 0 -112 43.5t-42 104.5z" />
<glyph unicode="&#xfd;" horiz-adv-x="1107" d="M541 479l45 -172h20l39 172l182 596h293l-356 -973q-45 -121 -85 -217t-87 -163.5t-105.5 -103.5t-138.5 -36q-53 0 -101 9.5t-83 27.5l59 221q31 -10 64 -10q29 0 55.5 6t49 23.5t42 49.5t33.5 85l-492 1081h347zM615 1493h290v-59l-258 -265h-155z" />
<glyph unicode="&#xfe;" horiz-adv-x="1275" d="M147 1434h287v-457h25q51 55 118.5 92t178.5 37q217 0 325.5 -128t108.5 -413q0 -137 -35 -247.5t-101.5 -187.5t-166 -119t-228.5 -42q-72 0 -121 12.5t-104 36.5v-428h-287v1844zM668 866q-176 0 -234 -182v-412q35 -31 78 -47t109 -16q139 0 206.5 87t67.5 277 q0 137 -52 215t-175 78z" />
<glyph unicode="&#xff;" horiz-adv-x="1107" d="M541 479l45 -172h20l39 172l182 596h293l-356 -973q-45 -121 -85 -217t-87 -163.5t-105.5 -103.5t-138.5 -36q-53 0 -101 9.5t-83 27.5l59 221q31 -10 64 -10q29 0 55.5 6t49 23.5t42 49.5t33.5 85l-492 1081h347zM155 1346q0 72 44 114.5t114 42.5t112 -43t42 -114 q0 -61 -42 -104.5t-112 -43.5t-114 43.5t-44 104.5zM673 1346q0 72 42 114.5t112 42.5q72 0 114 -43t42 -114q0 -61 -42 -104.5t-114 -43.5q-70 0 -112 43.5t-42 104.5z" />
<glyph unicode="&#x131;" horiz-adv-x="649" d="M182 1075h287v-1075h-287v1075z" />
<glyph unicode="&#x152;" horiz-adv-x="2033" d="M1008 1143q-47 23 -115 38t-152 15q-160 0 -249 -115.5t-89 -363.5q0 -106 19.5 -194.5t62.5 -152t111 -98t164 -34.5q66 0 124 7t124 34v864zM1008 0q-20 -6 -51 -12t-66 -9.5t-72 -5.5t-71 -2q-168 0 -293 54.5t-208 152.5t-124 235.5t-41 303.5q0 176 45 315 t130 234.5t209 145.5t282 50q90 0 151.5 -9t108.5 -19h923v-267h-620v-311h563v-266h-563v-324h631v-266h-934z" />
<glyph unicode="&#x153;" horiz-adv-x="2002" d="M381 537q0 -68 14.5 -128.5t44 -104.5t76.5 -69.5t115 -25.5q125 0 187.5 80t62.5 248q0 74 -13.5 134t-43 103t-78 67.5t-115.5 24.5q-117 0 -183.5 -77.5t-66.5 -251.5zM1006 129q-57 -70 -147.5 -115t-223.5 -45q-141 0 -244.5 43t-171 118t-100.5 179.5t-33 227.5 q0 270 141.5 419.5t403.5 149.5q76 0 138 -14.5t111.5 -37t87.5 -51t66 -55.5q57 63 152.5 110.5t243.5 47.5q86 0 169.5 -21.5t148 -71.5t104.5 -135t40 -210q0 -45 -5 -95.5t-17 -105.5h-713q8 -135 81 -202.5t232 -67.5q90 0 167 25.5t120 51.5l96 -178 q-70 -51 -187.5 -89t-252.5 -38q-256 0 -391 160h-16zM1425 879q-129 0 -189 -64.5t-71 -177.5h463q8 117 -43 179.5t-160 62.5z" />
<glyph unicode="&#x178;" horiz-adv-x="1318" d="M508 528l-512 906h360l287 -527l33 -153h10l35 157l276 523h326l-512 -904v-530h-303v528zM258 1634q0 55 40 89t130 34q86 0 126 -33.5t40 -89.5q0 -53 -40 -84.5t-126 -31.5q-90 0 -130 31.5t-40 84.5zM735 1634q0 55 40 89t126 34q90 0 130 -33.5t40 -89.5 q0 -53 -40 -84.5t-130 -31.5q-86 0 -126 31.5t-40 84.5z" />
<glyph unicode="&#x237;" horiz-adv-x="649" d="M186 1075h287v-1124q0 -195 -80 -299.5t-258 -104.5q-70 0 -147 15v239q63 -6 102 8.5t60.5 45t28.5 75.5t7 105v1040z" />
<glyph unicode="&#x2c6;" horiz-adv-x="1005" d="M426 1540h188l256 -385h-225l-86 141l-49 131l-51 -129l-107 -143h-209z" />
<glyph unicode="&#x2d9;" horiz-adv-x="645" d="M139 1384q0 66 47 110t133 44q88 0 139.5 -45t51.5 -109q0 -59 -51 -102t-140 -43q-86 0 -133 43t-47 102z" />
<glyph unicode="&#x2da;" horiz-adv-x="770" d="M139 1362q0 86 62.5 144.5t185.5 58.5q117 0 183.5 -52.5t66.5 -150.5q0 -39 -17.5 -75t-49 -63.5t-79 -44t-104.5 -16.5q-119 0 -183.5 55.5t-64.5 143.5zM287 1362q0 -35 29.5 -53.5t70.5 -18.5q45 0 75 17.5t30 54.5q0 39 -32 58.5t-73 19.5t-70.5 -18.5t-29.5 -59.5z " />
<glyph unicode="&#x2dc;" horiz-adv-x="1021" d="M137 1386q68 78 126.5 109t111.5 31q45 0 87 -14.5t83 -33t83 -32.5t89 -14q68 0 139 53l35 -154q-61 -68 -116.5 -95.5t-106.5 -27.5q-47 0 -89 15.5l-85 33t-87.5 33t-93.5 15.5q-35 0 -69.5 -11.5t-75.5 -44.5z" />
<glyph unicode="&#x2000;" horiz-adv-x="890" />
<glyph unicode="&#x2001;" horiz-adv-x="1781" />
<glyph unicode="&#x2002;" horiz-adv-x="890" />
<glyph unicode="&#x2003;" horiz-adv-x="1781" />
<glyph unicode="&#x2004;" horiz-adv-x="593" />
<glyph unicode="&#x2005;" horiz-adv-x="444" />
<glyph unicode="&#x2006;" horiz-adv-x="296" />
<glyph unicode="&#x2007;" horiz-adv-x="296" />
<glyph unicode="&#x2008;" horiz-adv-x="221" />
<glyph unicode="&#x2009;" horiz-adv-x="356" />
<glyph unicode="&#x200a;" horiz-adv-x="98" />
<glyph unicode="&#x2010;" horiz-adv-x="800" d="M121 717h559v-254h-559v254z" />
<glyph unicode="&#x2011;" horiz-adv-x="800" d="M121 717h559v-254h-559v254z" />
<glyph unicode="&#x2012;" horiz-adv-x="800" d="M121 717h559v-254h-559v254z" />
<glyph unicode="&#x2013;" horiz-adv-x="1470" d="M244 719h983v-258h-983v258z" />
<glyph unicode="&#x2014;" horiz-adv-x="1824" d="M242 719h1341v-258h-1341v258z" />
<glyph unicode="&#x2018;" horiz-adv-x="497" d="M414 1266q0 -61 -44 -98.5t-110 -37.5q-80 0 -127 49.5t-47 131.5q0 86 27.5 144t66.5 96t82 58.5t74 30.5l67 -116q-45 -16 -74.5 -50t-33.5 -75q43 2 81 -35t38 -98z" />
<glyph unicode="&#x2019;" horiz-adv-x="499" d="M86 1315q0 61 43 99t109 38q82 0 129 -51t47 -131q0 -86 -28 -144.5t-67.5 -97.5t-81.5 -60.5t-73 -29.5l-72 121q45 16 78 46t37 77q-43 -4 -82 30.5t-39 102.5z" />
<glyph unicode="&#x201a;" horiz-adv-x="499" d="M86 127q0 61 43 99t109 38q82 0 129 -51t47 -131q0 -86 -28 -144.5t-67.5 -97.5t-81.5 -60.5t-73 -29.5l-72 121q45 16 78 46t37 77q-43 -4 -82 30.5t-39 102.5z" />
<glyph unicode="&#x201c;" horiz-adv-x="878" d="M795 1266q0 -61 -44 -98.5t-110 -37.5q-80 0 -127 49.5t-47 131.5q0 86 27.5 144t66.5 96t82 58.5t74 30.5l67 -116q-45 -16 -74.5 -50t-33.5 -75q43 2 81 -35t38 -98zM414 1266q0 -61 -44 -98.5t-110 -37.5q-80 0 -127 49.5t-47 131.5q0 86 27.5 144t66.5 96t82 58.5 t74 30.5l67 -116q-45 -16 -74.5 -50t-33.5 -75q43 2 81 -35t38 -98z" />
<glyph unicode="&#x201d;" horiz-adv-x="880" d="M467 1313q0 61 43 99t108 38q82 0 129.5 -51t47.5 -131q0 -86 -28 -144.5t-68 -97.5t-82 -60.5t-72 -29.5l-72 121q45 16 78 46t37 77q-43 -4 -82 30.5t-39 102.5zM86 1313q0 61 43 99t109 38q82 0 129 -51t47 -131q0 -86 -28 -144.5t-67.5 -97.5t-81.5 -60.5t-73 -29.5 l-72 121q45 16 78 46t37 77q-43 -4 -82 30.5t-39 102.5z" />
<glyph unicode="&#x201e;" horiz-adv-x="880" d="M467 127q0 61 43 99t108 38q82 0 129.5 -51t47.5 -131q0 -86 -28 -144.5t-68 -97.5t-82 -60.5t-72 -29.5l-72 121q45 16 78 46t37 77q-43 -4 -82 30.5t-39 102.5zM86 127q0 61 43 99t109 38q82 0 129 -51t47 -131q0 -86 -28 -144.5t-67.5 -97.5t-81.5 -60.5t-73 -29.5 l-72 121q45 16 78 46t37 77q-43 -4 -82 30.5t-39 102.5z" />
<glyph unicode="&#x2022;" horiz-adv-x="1007" d="M164 637q0 70 27.5 128t73.5 100t107.5 65.5t129.5 23.5q70 0 132 -21.5t108 -63.5t74 -100t28 -132t-28 -131t-74 -98t-108.5 -62.5t-131.5 -21.5q-68 0 -129.5 21.5t-107.5 62.5t-73.5 98t-27.5 131z" />
<glyph unicode="&#x2026;" horiz-adv-x="1757" d="M1288 139q0 76 49 119t129 43q82 0 131.5 -43t49.5 -119q0 -72 -49.5 -117t-131.5 -45q-80 0 -129 45t-49 117zM700 139q0 76 49.5 119t129.5 43q82 0 131 -43t49 -119q0 -72 -49 -117t-131 -45q-80 0 -129.5 45t-49.5 117zM115 139q0 76 49 119t129 43q82 0 131 -43 t49 -119q0 -72 -49 -117t-131 -45q-80 0 -129 45t-49 117z" />
<glyph unicode="&#x202f;" horiz-adv-x="356" />
<glyph unicode="&#x2039;" horiz-adv-x="681" d="M66 530l356 471l162 -145l-178 -240l-107 -84l107 -73l194 -234l-166 -147z" />
<glyph unicode="&#x203a;" horiz-adv-x="681" d="M618 549l-356 -471l-166 143l183 242l106 84l-106 74l-197 235l166 145z" />
<glyph unicode="&#x2044;" horiz-adv-x="407" d="M592 1464l186 -116l-958 -1377l-185 125z" />
<glyph unicode="&#x205f;" horiz-adv-x="444" />
<glyph unicode="&#x2081;" horiz-adv-x="905" d="M154 16h219v308l20 98l-67 -68l-127 -84l-113 170l350 230h191v-654h196v-221h-669v221z" />
<glyph unicode="&#x2082;" horiz-adv-x="905" d="M770 403q0 -59 -17.5 -108t-46 -90t-68.5 -78t-85 -74l-107 -49v-10l132 24h227v-223h-694v160q57 35 126.5 83t131 100t102.5 107.5t41 106.5q0 53 -31.5 72.5t-93.5 19.5q-59 0 -112.5 -19t-94.5 -42l-78 201q78 43 167 64.5t169 21.5q158 0 245 -69t87 -198z" />
<glyph unicode="&#x2083;" horiz-adv-x="905" d="M371 -12q100 0 140 25.5t40 70.5q0 43 -42 68.5t-157 25.5h-88v82l158 152l96 49l-129 -12h-256v206h631v-137l-193 -176l-75 -37v-10l65 6q117 -4 182.5 -64.5t65.5 -170.5q0 -74 -32 -128.5t-87 -89t-128 -51t-154 -16.5q-86 0 -160 14.5t-127 36.5l51 195 q93 -39 199 -39z" />
<glyph unicode="&#x2084;" horiz-adv-x="905" d="M887 -51h-170v-154h-221v154h-463v147l487 576h197v-531h170v-192zM496 307l10 111h-10l-47 -99l-105 -129l-80 -67l119 18h113v166z" />
<glyph unicode="&#x20ac;" d="M47 973h141q33 137 96.5 228t148.5 149.5t185.5 85t206.5 26.5q119 0 210 -17.5t151 -39.5l-80 -225q-47 20 -112.5 31.5t-151.5 11.5q-129 0 -225.5 -59.5t-145.5 -190.5h571l-57 -193h-557q-2 -14 -2 -30v-33v-55h514l-57 -193h-418q47 -127 144.5 -192.5t254.5 -65.5 q96 0 163 21.5t120 52.5l59 -222q-35 -25 -80 -42t-97 -28t-105.5 -16.5t-102.5 -5.5q-121 0 -224 30t-186 90.5t-141.5 152.5t-87.5 225h-205l70 193h111v55v33q0 16 2 30h-183z" />
<glyph unicode="&#x2122;" horiz-adv-x="2105" d="M872 1194h-262v-498h-286v498h-263v240h811v-240zM1780 987l35 211h-13l-80 -174l-151 -236h-172l-154 228l-86 182h-12l55 -209v-293h-250v738h289l203 -312l53 -129h2l57 133l187 308h287v-738h-250v291z" />
<glyph unicode="&#xe000;" horiz-adv-x="1075" d="M0 1075h1075v-1075h-1075v1075z" />
<glyph unicode="&#xf408;" horiz-adv-x="1040" d="M420 1782h215l283 -189v-84h-222l-127 82l-45 70l-49 -68l-135 -84h-217v86z" />
<glyph unicode="&#xf40d;" horiz-adv-x="1056" d="M123 1647q68 72 132 98.5t128 26.5q49 0 98 -11.5t95.5 -26t90.5 -25.5t85 -11q35 0 67.5 10t63.5 39l51 -148q-59 -53 -116.5 -73.5t-112.5 -20.5q-49 0 -97.5 11.5t-94.5 25.5t-90 25.5t-87 11.5t-84 -15.5t-82 -56.5z" />
<glyph unicode="&#xf662;" horiz-adv-x="905" d="M369 1102l20 96l-67 -65l-129 -84l-111 170l350 229h191v-875h-254v529z" />
<glyph unicode="&#xf6c9;" horiz-adv-x="831" d="M356 1782h353v-64l-357 -178h-229z" />
<glyph unicode="&#xf6cb;" horiz-adv-x="1058" d="M123 1634q0 55 40 89t130 34q86 0 126 -33.5t40 -89.5q0 -53 -40 -84.5t-126 -31.5q-90 0 -130 31.5t-40 84.5zM600 1634q0 55 40 89t126 34q90 0 130 -33.5t40 -89.5q0 -53 -40 -84.5t-130 -31.5q-86 0 -126 31.5t-40 84.5z" />
<glyph unicode="&#xf6ce;" horiz-adv-x="831" d="M709 1540h-234l-352 178v64h354z" />
<glyph unicode="&#xfb01;" horiz-adv-x="1320" d="M1149 1075v-1075h-287v836h-379v-836h-286v836h-164v239h164v27q0 193 113.5 272.5t324.5 79.5q158 0 286 -19.5t220 -54.5l-58 -225q-33 10 -77.5 21.5t-95 19.5t-102.5 13t-101 5q-72 0 -116 -5t-67.5 -20t-32 -43t-8.5 -71h666z" />
<glyph unicode="&#xfb02;" horiz-adv-x="1388" d="M856 1192q-33 10 -89 16t-110 6q-57 0 -91 -9t-52 -26.5t-24.5 -44t-6.5 -59.5h236v-239h-236v-836h-286v836h-164v239h164v27q0 86 23.5 151.5t78.5 110.5t144 67.5t221 22.5q51 0 117.5 -4t134 -9t128 -11.5t99.5 -12.5v-1040q0 -82 24.5 -118t75.5 -36q25 0 53.5 4 t59.5 15l33 -222q-39 -18 -115 -34.5t-150 -16.5q-129 0 -198.5 56.5t-69.5 187.5v979z" />
<glyph unicode="&#xfb03;" horiz-adv-x="2164" d="M1698 1075h287v-1075h-287v1075zM1655 1304q0 66 47 110t133 44q88 0 139.5 -45t51.5 -109q0 -59 -51 -102t-140 -43q-86 0 -133 43t-47 102zM791 1075h162v68q0 94 28.5 154.5t77.5 96.5t113.5 50t134.5 14q98 0 171 -9t136 -30l-53 -223q-51 16 -92 22.5t-88 6.5 q-88 0 -115 -33t-27 -117h262v-239h-262v-836h-286v836h-162v239zM33 1075h162v68q0 94 28.5 154.5t77.5 96.5t113.5 50t134.5 14q98 0 171 -9t136 -30l-53 -223q-51 16 -92 22.5t-88 6.5q-88 0 -115 -33t-27 -117h262v-239h-262v-836h-286v836h-162v239z" />
<glyph unicode="&#xfb04;" horiz-adv-x="2205" d="M1956 377q0 -156 101 -156q29 0 54.5 5t59.5 18l35 -224q-41 -18 -115.5 -35.5t-154.5 -17.5q-129 0 -197.5 57.5t-68.5 188.5v1221h286v-1057zM791 1075h162v68q0 94 28.5 154.5t77.5 96.5t113.5 50t134.5 14q98 0 171 -9t136 -30l-53 -223q-51 16 -92 22.5t-88 6.5 q-88 0 -115 -33t-27 -117h262v-239h-262v-836h-286v836h-162v239zM33 1075h162v68q0 94 28.5 154.5t77.5 96.5t113.5 50t134.5 14q98 0 171 -9t136 -30l-53 -223q-51 16 -92 22.5t-88 6.5q-88 0 -115 -33t-27 -117h262v-239h-262v-836h-286v836h-162v239z" />
</font>
</defs>
</svg>
